<?xml version="1.0" standalone="no"?>
<!DOCTYPE svg PUBLIC "-//W3C//DTD SVG 1.1//EN" "http://www.w3.org/Graphics/SVG/1.1/DTD/svg11.dtd" >
<svg xmlns="http://www.w3.org/2000/svg" xmlns:xlink="http://www.w3.org/1999/xlink" version="1.1">
<metadata></metadata>
<defs>
<font id="rubikbold" horiz-adv-x="1214" >
<font-face units-per-em="2048" ascent="1638" descent="-410" />
<missing-glyph horiz-adv-x="430" />
<glyph unicode="&#xfb01;" horiz-adv-x="1409" d="M33 838v176q0 23 15 37t38 14h154v61q0 205 118.5 297.5t339.5 92.5h543q23 0 37 -14.5t14 -37.5v-176q0 -20 -14 -35.5t-37 -15.5h-526q-66 0 -93.5 -29.5t-27.5 -91.5v-51h647q23 0 37 -14.5t14 -36.5v-963q0 -20 -14 -35.5t-37 -15.5h-250q-23 0 -38 14.5t-15 36.5 v735h-344v-735q0 -20 -14.5 -35.5t-36.5 -15.5h-250q-23 0 -38 14.5t-15 36.5v735h-154q-23 0 -38 14.5t-15 37.5z" />
<glyph unicode="&#xfb02;" horiz-adv-x="1466" d="M33 838v176q0 23 15 37t38 14h154v61q0 205 118.5 297.5t339.5 92.5h136q23 0 37 -14.5t14 -37.5v-176q0 -20 -14.5 -35.5t-36.5 -15.5h-119q-66 0 -93.5 -29.5t-27.5 -91.5v-51h401v399q0 23 15.5 37.5t36.5 14.5h251q23 0 37.5 -14.5t14.5 -37.5v-1413 q0 -20 -14.5 -35.5t-37.5 -15.5h-251q-20 0 -36 15.5t-16 35.5v735h-401v-735q0 -20 -14.5 -35.5t-36.5 -15.5h-250q-23 0 -38 14.5t-15 36.5v735h-154q-23 0 -38 14.5t-15 37.5z" />
<glyph horiz-adv-x="0" />
<glyph unicode="&#xd;" horiz-adv-x="430" />
<glyph horiz-adv-x="0" />
<glyph horiz-adv-x="0" />
<glyph unicode=" "  horiz-adv-x="430" />
<glyph unicode="&#x09;" horiz-adv-x="430" />
<glyph unicode="&#xa0;" horiz-adv-x="430" />
<glyph unicode="!" horiz-adv-x="604" d="M119 51v264q0 23 15.5 38.5t35.5 15.5h264q20 0 35.5 -15.5t15.5 -38.5v-264q0 -20 -14 -35.5t-37 -15.5h-264q-20 0 -35.5 15.5t-15.5 35.5zM125 516v866q0 23 15.5 37.5t37.5 14.5h248q23 0 38 -14.5t15 -37.5v-866q0 -23 -15 -38t-38 -15h-248q-22 0 -37.5 15.5 t-15.5 37.5z" />
<glyph unicode="&#x22;" horiz-adv-x="940" d="M82 1391q-2 29 11 46t38 17h240q25 0 38 -17.5t11 -45.5l-47 -430q-8 -57 -60 -58h-125q-51 1 -59 58zM520 1391q-2 29 11.5 46t39.5 17h238q27 0 40 -17.5t9 -45.5l-47 -430q-4 -57 -59 -58h-125q-52 1 -60 58z" />
<glyph unicode="#" horiz-adv-x="1402" d="M90 365v172q0 20 14.5 34.5t34.5 14.5h180l37 250h-163q-20 0 -35 14t-15 35v172q0 20 14.5 34.5t35.5 14.5h204l29 192q4 18 17.5 30.5t31.5 12.5h170q18 0 31.5 -13t11.5 -32l-29 -190h203l29 192q4 18 17.5 30.5t31.5 12.5h170q18 0 31.5 -13t11.5 -32l-29 -190h140 q20 0 34.5 -14.5t14.5 -34.5v-172q0 -20 -14.5 -34.5t-34.5 -14.5h-179l-36 -250h161q20 0 35 -14.5t15 -34.5v-172q0 -20 -14.5 -35t-35.5 -15h-202l-29 -192q-4 -18 -16.5 -30.5t-32.5 -12.5h-170q-18 0 -31.5 13t-13.5 32l28 190h-200l-29 -192q-4 -18 -16.5 -30.5 t-32.5 -12.5h-170q-19 0 -33 13t-12 32l29 190h-140q-20 0 -34.5 14.5t-14.5 35.5zM584 586h200l37 250h-200z" />
<glyph unicode="$" horiz-adv-x="1378" d="M63 393q0 18 13.5 30.5t32.5 12.5h272q27 0 41 -8t33 -29q63 -113 233 -112q111 0 171.5 33.5t60.5 93.5q0 43 -32 70.5t-98.5 49t-195.5 48.5q-248 49 -371 149t-123 287q0 166 119 281.5t326 144.5v143q0 23 15 37t36 14h178q23 0 37 -14t14 -37v-147 q135 -25 233.5 -87.5t151 -143.5t56.5 -156q0 -18 -12.5 -31.5t-30.5 -13.5h-287q-47 0 -70 36q-12 43 -64 73t-126 30q-86 0 -133 -31t-47 -90t61 -93t227 -69q193 -35 307.5 -87t168 -135t53.5 -210q0 -180 -132 -297t-356 -145v-144q0 -23 -14 -37t-37 -14h-178 q-21 0 -36 14.5t-15 36.5v144q-154 18 -261.5 76.5t-161.5 144.5t-59 182z" />
<glyph unicode="%" horiz-adv-x="1660" d="M72 1063q0 27 4 108q6 125 88 199t227 74t227 -74t91 -199q4 -82 4 -108q0 -25 -4 -86q-8 -123 -93.5 -194.5t-224.5 -71.5t-223 71.5t-92 194.5q-4 61 -4 86zM182 41q0 12 8 22l1012 1332q16 20 30.5 29.5t41.5 9.5h153q20 0 34 -11.5t14 -29.5q0 -12 -9 -23 l-1011 -1331q-16 -20 -30.5 -29.5t-41.5 -9.5h-154q-20 0 -33.5 11.5t-13.5 29.5zM299 1075q0 -55 2 -86q4 -43 25.5 -69.5t64.5 -26.5q45 0 66.5 27.5t23.5 68.5q4 61 4 86q0 27 -4 84q-2 43 -23.5 70.5t-66.5 27.5q-82 0 -90 -98q-2 -29 -2 -84zM948 346q0 25 4 107 q8 127 90 200.5t228 73.5q145 0 227 -73.5t88 -200.5q4 -82 4 -107t-4 -86q-8 -123 -92 -196.5t-223 -73.5q-140 0 -224.5 73.5t-93.5 196.5q-4 61 -4 86zM1178 358q0 -55 2 -86q2 -43 23.5 -70.5t66.5 -27.5q43 0 64.5 27.5t25.5 70.5q4 61 4 86q0 27 -4 84q-4 43 -25.5 70 t-64.5 27q-45 0 -66.5 -28t-23.5 -69q-2 -29 -2 -84z" />
<glyph unicode="&#x26;" horiz-adv-x="1529" d="M88 399q0 127 70.5 221.5t206.5 170.5q-78 82 -112 153.5t-34 147.5q0 98 51.5 181t153.5 132t248 49q133 0 230 -49t148.5 -130t51.5 -177q0 -117 -72 -204t-211 -165l234 -235q31 51 55.5 99t48.5 128q8 29 43 29h219q16 0 27.5 -11.5t11.5 -27.5q-2 -70 -67.5 -192 t-143.5 -218l230 -235q14 -14 14 -29q0 -16 -11.5 -26.5t-27.5 -10.5h-293q-33 0 -53 20l-88 84q-84 -66 -182.5 -95t-219.5 -29q-243 0 -385.5 111.5t-142.5 307.5zM428 416q0 -76 56.5 -122t131.5 -46q119 -1 203 71l-264 263q-127 -68 -127 -166zM545 1085 q0 -35 21.5 -72.5t72.5 -90.5q76 39 117 76.5t41 88.5t-36 84t-91 33q-51 0 -88 -33.5t-37 -85.5z" />
<glyph unicode="'" horiz-adv-x="501" d="M82 1391q-2 29 11 46t38 17h240q25 0 38 -17.5t11 -45.5l-47 -430q-8 -57 -60 -58h-125q-51 1 -59 58z" />
<glyph unicode="(" horiz-adv-x="794" d="M84 633q0 956 612 956q23 0 37.5 -14t14.5 -37v-184q0 -20 -14.5 -34.5t-35.5 -16.5q-160 -10 -223 -175t-63 -495t63.5 -496t222.5 -176q20 -2 35 -16.5t15 -34.5v-184q0 -23 -14.5 -37.5t-37.5 -14.5q-612 1 -612 959z" />
<glyph unicode=")" horiz-adv-x="794" d="M47 -90q0 20 14.5 34.5t34.5 16.5q162 10 224.5 175t62.5 497q0 330 -62.5 494.5t-224.5 175.5q-20 2 -34.5 16t-14.5 35v184q0 23 15.5 37t35.5 14q614 0 615 -956q0 -958 -615 -959q-20 0 -35.5 14.5t-15.5 37.5v184z" />
<glyph unicode="*" horiz-adv-x="911" d="M82 1155l59 182q4 16 21.5 24.5t34.5 4.5l16 -6l143 -90l-39 164l-2 16q0 16 13.5 30.5t31.5 14.5h191q18 0 31.5 -14.5t13.5 -30.5l-2 -16l-43 -166l145 92l17 6q4 2 10 2q16 0 29.5 -8t15.5 -23l61 -182l2 -12q0 -14 -9 -27.5t-23 -17.5l-15 -4l-172 -13l133 -108 q10 -10 11 -12q8 -16 8 -27q0 -23 -19 -35l-153 -115q-12 -6 -27 -6q-25 0 -37 19l-8 12l-65 160l-64 -160q-6 -10 -10 -12q-12 -18 -37 -19q-14 0 -27 6l-151 115q-18 12 -19 35q0 10 9 27q0 2 10 12l131 110l-170 11l-16 4q-16 4 -24.5 21.5t-4.5 35.5z" />
<glyph unicode="+" horiz-adv-x="1239" d="M70 541v157q0 23 14 38.5t37 15.5h360v358q0 23 15.5 37t35.5 14h177q23 0 38 -14t15 -37v-358h356q23 0 38 -15.5t15 -38.5v-157q0 -23 -15 -37.5t-38 -14.5h-356v-370q0 -23 -15.5 -37t-37.5 -14h-177q-20 0 -35.5 15t-15.5 36v370h-360q-20 0 -35.5 15.5t-15.5 36.5z " />
<glyph unicode="," horiz-adv-x="575" d="M66 -109l63 412q4 29 22.5 50.5t53.5 21.5h248q16 0 28.5 -12.5t12.5 -28.5q0 -12 -5 -23l-159 -407q-23 -57 -76 -58h-150q-18 0 -29.5 13.5t-8.5 31.5z" />
<glyph unicode="-" horiz-adv-x="974" d="M113 512v205q0 23 15 37t38 14h645q23 0 37 -14.5t14 -36.5v-205q0 -20 -14 -35.5t-37 -15.5h-645q-23 0 -38 14t-15 37z" />
<glyph unicode="." horiz-adv-x="587" d="M106 51v271q0 23 15.5 38t38.5 15h270q23 0 37 -15.5t14 -37.5v-271q0 -20 -14 -35.5t-37 -15.5h-270q-23 0 -38.5 14.5t-15.5 36.5z" />
<glyph unicode="/" horiz-adv-x="1103" d="M47 -129q0 10 4 20l692 1668q23 51 76 51h195q18 0 30.5 -13.5t12.5 -29.5q0 -10 -4 -21l-697 -1667q-20 -51 -75 -51h-191q-16 0 -29.5 13.5t-13.5 29.5z" />
<glyph unicode="0" horiz-adv-x="1400" d="M102 717q0 90 4 205q8 154 77 273.5t199 189t316 69.5t317.5 -69.5t200 -189.5t76.5 -273q4 -57 4 -205q0 -143 -4 -199q-14 -242 -161.5 -389t-432.5 -149q-282 2 -429.5 149t-162.5 389q-4 111 -4 199zM502 721q0 -133 2 -193q10 -240 194 -239q97 0 144 62.5t51 176.5 q4 59 4 193q0 133 -4 188q-4 111 -51 175.5t-144 64.5q-184 0 -194 -240q-2 -55 -2 -188z" />
<glyph unicode="1" horiz-adv-x="1032" d="M33 1008q0 29 22 45l475 366q20 14 48 15h270q23 0 38 -14.5t15 -37.5v-1331q0 -23 -15.5 -37t-37.5 -14h-281q-20 0 -35.5 15.5t-15.5 35.5v959l-274 -211q-16 -10 -31 -11q-25 0 -43 25l-127 164q-8 14 -8 31z" />
<glyph unicode="2" horiz-adv-x="1343" d="M84 51v154q0 61 51 102l191 187q195 147 294 229t151 148.5t52 125.5q0 152 -151 152q-80 0 -123 -48t-57 -120q-12 -47 -70 -47h-270q-18 0 -32 13.5t-14 29.5q4 135 75 244.5t198 174t293 64.5q172 0 297 -55t189.5 -155.5t64.5 -233.5q0 -147 -91.5 -266t-277.5 -258 l-170 -170h518q23 0 37 -14.5t14 -37.5v-219q0 -20 -14 -35.5t-37 -15.5h-1067q-20 0 -35.5 15.5t-15.5 35.5z" />
<glyph unicode="3" horiz-adv-x="1361" d="M63 381q0 18 13.5 30.5t32.5 12.5h282q25 0 39 -9t27 -30q39 -100 215 -100q100 0 155.5 47t55.5 127q0 154 -205 153h-229q-23 0 -38.5 15.5t-15.5 38.5v120q0 47 35 70l330 270h-565q-20 0 -36 15.5t-16 36.5v202q0 23 14.5 38.5t37.5 15.5h954q23 0 37 -15.5t14 -38.5 v-182q0 -43 -33 -68l-303 -276l15 -4q184 -27 292.5 -127t108.5 -289q0 -137 -79 -240.5t-217 -158.5t-314 -55q-201 0 -337 62t-200.5 154.5t-69.5 184.5z" />
<glyph unicode="4" horiz-adv-x="1409" d="M57 328v207q0 31 23 61l594 803q29 35 76 35h311q23 0 38 -14.5t15 -37.5v-788h180q25 0 39.5 -15.5t14.5 -35.5v-215q0 -20 -14.5 -36t-37.5 -16h-182v-225q0 -23 -15.5 -37t-37.5 -14h-266q-21 0 -36.5 15.5t-15.5 35.5v225h-634q-20 0 -36 15.5t-16 36.5zM422 580h330 v460z" />
<glyph unicode="5" horiz-adv-x="1333" d="M66 410q0 18 12 30.5t31 12.5h288q49 0 68 -39q29 -68 77 -98.5t120 -30.5q88 0 146 53t58 149q0 84 -57 139.5t-147 55.5q-51 0 -82 -13.5t-60 -35.5q-31 -25 -53 -25h-285q-18 0 -31.5 13.5t-13.5 31.5l76 719q2 29 21.5 45.5t46.5 16.5h833q23 0 37 -14.5t14 -37.5 v-204q0 -20 -14 -36t-37 -16h-596l-24 -252q49 35 110.5 52.5t159.5 17.5q131 0 245.5 -58.5t183.5 -165t69 -243.5q0 -143 -72 -257t-208 -178.5t-320 -64.5q-187 0 -321 59.5t-202.5 158t-72.5 215.5z" />
<glyph unicode="6" horiz-adv-x="1341" d="M66 494q0 176 174 419l358 480q29 41 74 41h286q18 0 32 -13.5t14 -31.5q0 -10 -11 -27l-274 -373q25 6 57 6q125 -6 243 -69.5t192.5 -173t74.5 -250.5q0 -143 -75.5 -263t-213 -189.5t-315.5 -69.5q-182 0 -321.5 64.5t-217 181t-77.5 268.5zM461 496 q0 -98 62.5 -153.5t154.5 -55.5q90 0 153.5 56t63.5 153q0 98 -62.5 153.5t-154.5 55.5t-154.5 -55.5t-62.5 -153.5z" />
<glyph unicode="7" horiz-adv-x="1185" d="M57 1165v215q0 23 15.5 38.5t38.5 15.5h968q23 0 38.5 -15.5t15.5 -38.5v-190q0 -37 -10.5 -63.5t-12.5 -30.5l-471 -1047q-23 -49 -74 -49h-278q-19 0 -31 13.5t-12 31.5q0 10 4 18l471 1049h-608q-23 0 -38.5 15.5t-15.5 37.5z" />
<glyph unicode="8" horiz-adv-x="1394" d="M90 432q0 106 54.5 193.5t142.5 134.5q-145 94 -146 282q0 182 140.5 297t414.5 115q272 0 410.5 -113.5t138.5 -296.5q0 -186 -139 -284q90 -43 144.5 -131t54.5 -199q0 -127 -68 -228.5t-205 -161.5t-336 -60q-198 0 -335.5 60t-204 162.5t-66.5 229.5zM473 430 q0 -82 63.5 -131t159.5 -49q97 0 159.5 49t62.5 131t-62.5 131t-159.5 49q-96 0 -159.5 -49t-63.5 -131zM500 1024q0 -70 54 -114t142 -44q86 2 141.5 46t55.5 112q0 70 -55.5 114t-141.5 44q-88 0 -142 -44t-54 -114z" />
<glyph unicode="9" horiz-adv-x="1323" d="M57 940q0 135 69 253t203 189.5t322 71.5q190 0 327.5 -65.5t208 -179t70.5 -255.5q0 -113 -46 -206t-138 -218l-37 -51l-321 -438q-29 -41 -74 -41h-289q-18 0 -30.5 13.5t-12.5 31.5q0 14 8 27l287 391q-27 -6 -55 -4q-125 8 -237.5 68.5t-183.5 168t-71 244.5z M449 942q0 -94 57 -149.5t149 -55.5q90 0 148.5 55.5t58.5 149.5t-59.5 149.5t-147.5 55.5q-90 0 -148 -55.5t-58 -149.5z" />
<glyph unicode=":" horiz-adv-x="604" d="M115 51v258q0 23 15 37t36 14h270q23 0 38 -14t15 -37v-258q0 -23 -15 -37t-38 -14h-270q-21 0 -36 15.5t-15 35.5zM115 768v258q0 23 15 37t36 14h270q23 0 38 -14t15 -37v-258q0 -23 -15 -37t-38 -14h-270q-21 0 -36 15.5t-15 35.5z" />
<glyph unicode=";" horiz-adv-x="620" d="M76 -109l63 412q6 31 24.5 51.5t51.5 20.5h250q16 0 28.5 -12.5t12.5 -28.5q0 -2 -4 -23l-160 -407q-23 -57 -76 -58h-149q-19 0 -30 13.5t-11 31.5zM141 768v258q0 23 15.5 37t38.5 14h270q23 0 37 -14t14 -37v-258q0 -20 -14.5 -35.5t-36.5 -15.5h-270q-23 0 -38.5 14 t-15.5 37z" />
<glyph unicode="&#x3c;" horiz-adv-x="1062" d="M59 686v66q0 29 13.5 47t46.5 41l747 508q20 12 33 12q18 0 30.5 -11.5t12.5 -31.5v-232q0 -31 -15.5 -48t-41.5 -33l-436 -285l436 -287q29 -20 43 -35.5t14 -44.5v-233q0 -18 -12 -30.5t-31 -12.5q-13 0 -33 12l-747 508q-31 20 -45.5 40.5t-14.5 49.5z" />
<glyph unicode="=" horiz-adv-x="1159" d="M123 274v168q0 23 15.5 37.5t35.5 14.5h809q23 0 38 -14.5t15 -37.5v-168q0 -23 -15 -37t-38 -14h-809q-20 0 -35.5 15.5t-15.5 35.5zM123 786v168q0 23 15.5 37.5t35.5 14.5h809q23 0 38 -14.5t15 -37.5v-168q0 -23 -15 -37t-38 -14h-809q-20 0 -35.5 15.5t-15.5 35.5z " />
<glyph unicode="&#x3e;" horiz-adv-x="1062" d="M121 119v233q0 29 14.5 44.5t42.5 35.5l436 287l-436 285q-27 16 -42 33.5t-15 47.5v232q0 20 12 31.5t31 11.5q12 0 33 -12l747 -508q33 -23 46.5 -41.5t13.5 -46.5v-66q0 -29 -14.5 -49.5t-45.5 -40.5l-747 -508q-20 -12 -33 -12q-19 0 -31 12t-12 31z" />
<glyph unicode="?" horiz-adv-x="1234" d="M57 1010q4 111 72 213t201 166.5t317 64.5q188 0 306 -58.5t169.5 -142.5t51.5 -170q0 -104 -47.5 -182t-135.5 -174q-55 -61 -83.5 -98t-47.5 -80q-8 -18 -14 -51q-16 -31 -29.5 -43.5t-36.5 -12.5h-303q-16 0 -28.5 12.5t-12.5 28.5q0 29 2 43q14 84 64.5 151.5 t136.5 151.5q63 61 96 103.5t35 83.5q6 59 -38 96t-109 37q-152 0 -187 -145q-10 -25 -24.5 -37.5t-40.5 -12.5h-267q-20 0 -33.5 15.5t-13.5 40.5zM430 51v244q0 23 15.5 38t37.5 15h275q23 0 38 -15.5t15 -37.5v-244q0 -23 -15.5 -37t-37.5 -14h-275q-22 0 -37.5 14.5 t-15.5 36.5z" />
<glyph unicode="@" horiz-adv-x="1732" d="M94 557q0 123 6 174q16 178 105.5 326.5t253.5 237.5t395 89q401 0 583.5 -174t204.5 -479q4 -78 5 -125q0 -68 -5 -133q-8 -145 -98 -228t-217 -83q-92 0 -156.5 31.5t-95.5 70.5q-33 -53 -90 -88t-176 -35q-154 0 -241 113t-87 305q0 195 85 307.5t237 112.5 q74 0 122 -24.5t83 -69.5v26q0 23 15 37.5t36 14.5h110q23 0 37.5 -14.5t14.5 -37.5v-413q0 -63 28.5 -97t77.5 -34q55 0 80 37.5t25 93.5q2 35 2 120q0 68 -2 103q-10 160 -67.5 260t-180.5 149.5t-330 49.5q-250 0 -382 -122t-159 -337q-6 -51 -6 -164q0 -106 6 -166 q49 -457 568 -457q170 0 254 27t153 80q14 12 29.5 20.5t34.5 8.5h151q23 0 38 -14.5t13 -37.5q0 -14 -12 -30q-98 -115 -260 -186.5t-401 -71.5q-365 0 -559.5 176t-221.5 475q-6 59 -6 176zM694 559q0 -104 40 -158.5t116 -54.5q80 0 119 51.5t39 161.5q0 111 -39 163 t-119 52q-156 0 -156 -215z" />
<glyph unicode="A" horiz-adv-x="1474" d="M16 43q0 12 2 18l478 1313q20 59 82 60h319q61 0 82 -60l477 -1313q2 -6 2 -18q0 -16 -13 -29.5t-30 -13.5h-266q-49 0 -70 45l-73 199h-537l-74 -199q-20 -45 -69 -45h-267q-16 0 -29.5 13.5t-13.5 29.5zM555 551h365l-183 522z" />
<glyph unicode="B" horiz-adv-x="1447" d="M139 51v1329q0 23 14.5 38.5t36.5 15.5h633q260 0 387 -106.5t127 -303.5q0 -98 -52 -170t-116 -104q84 -37 141.5 -122t57.5 -192q0 -207 -136 -321.5t-390 -114.5h-652q-20 0 -35.5 15.5t-15.5 35.5zM524 276h275q80 0 124 46.5t44 113.5q0 70 -45 116t-123 46h-275 v-322zM524 866h256q76 0 117 41t41 107q0 63 -40 103t-118 40h-256v-291z" />
<glyph unicode="C" horiz-adv-x="1445" d="M94 715q0 127 2 184q10 266 179 410.5t458 144.5q182 0 326.5 -59.5t228.5 -172t88 -266.5q0 -18 -13 -30.5t-32 -12.5h-291q-29 0 -42 11.5t-23 42.5q-29 100 -87.5 140t-154.5 40q-231 0 -239 -258q-2 -55 -2 -170t2 -174q8 -258 239 -258q94 0 154.5 41t87.5 139 q8 31 22.5 42t42.5 11h291q18 0 31.5 -12t13.5 -31q-4 -154 -88 -266.5t-228.5 -171.5t-326.5 -59q-293 0 -460 141t-177 414q-2 55 -2 180z" />
<glyph unicode="D" horiz-adv-x="1472" d="M139 51v1329q0 23 14.5 38.5t36.5 15.5h539q303 0 471 -144.5t176 -415.5q2 -59 2 -157t-2 -156q-20 -561 -637 -561h-549q-20 0 -35.5 15.5t-15.5 35.5zM524 307h205q129 0 190.5 61.5t65.5 196.5q4 59 4 154q0 94 -4 151q-4 131 -70.5 193.5t-195.5 62.5h-195v-819z " />
<glyph unicode="E" horiz-adv-x="1314" d="M139 51v1329q0 23 14.5 38.5t36.5 15.5h967q23 0 38 -15.5t15 -38.5v-202q0 -23 -15 -37.5t-38 -14.5h-647v-260h602q23 0 38 -15t15 -38v-186q0 -23 -15 -38.5t-38 -15.5h-602v-266h664q23 0 38 -15.5t15 -37.5v-203q0 -23 -15.5 -37t-37.5 -14h-984q-20 0 -35.5 15.5 t-15.5 35.5z" />
<glyph unicode="F" horiz-adv-x="1271" d="M139 51v1329q0 23 14.5 38.5t36.5 15.5h953q23 0 38 -15.5t15 -38.5v-217q0 -23 -15.5 -37t-37.5 -14h-627v-285h586q23 0 38 -15t15 -38v-217q0 -23 -15.5 -37t-37.5 -14h-586v-455q0 -20 -14.5 -35.5t-36.5 -15.5h-275q-20 0 -35.5 15.5t-15.5 35.5z" />
<glyph unicode="G" horiz-adv-x="1480" d="M94 723q0 129 2 188q8 258 179 400.5t464 142.5q197 0 343.5 -63.5t223 -163t80.5 -203.5q0 -18 -13 -31.5t-32 -13.5h-317q-20 0 -31.5 7t-21.5 22q-25 57 -79 98t-153 41q-238 0 -245 -246q-2 -57 -2 -176t2 -178q8 -260 249 -260q119 0 188.5 59.5t69.5 179.5v37h-182 q-23 0 -38 15.5t-15 37.5v160q0 23 15.5 38t37.5 15h520q23 0 38.5 -15t15.5 -38v-237q0 -174 -81 -300t-228.5 -192.5t-344.5 -66.5q-297 0 -465 144t-178 413q-2 57 -2 186z" />
<glyph unicode="H" horiz-adv-x="1531" d="M139 51v1329q0 23 14.5 38.5t36.5 15.5h281q23 0 38 -15.5t15 -38.5v-485h484v485q0 23 15 38.5t38 15.5h278q23 0 38.5 -15.5t15.5 -38.5v-1329q0 -23 -15.5 -37t-38.5 -14h-278q-23 0 -38 14.5t-15 36.5v502h-484v-502q0 -23 -15 -37t-38 -14h-281q-22 0 -36.5 14.5 t-14.5 36.5z" />
<glyph unicode="I" horiz-adv-x="673" d="M139 51v1331q0 23 15.5 37.5t35.5 14.5h293q23 0 37.5 -14.5t14.5 -37.5v-1331q0 -20 -14.5 -35.5t-37.5 -15.5h-293q-20 0 -35.5 15.5t-15.5 35.5z" />
<glyph unicode="J" horiz-adv-x="1380" d="M45 453q0 18 12.5 31.5t30.5 13.5h293q29 0 45 -13.5t27 -44.5q33 -153 198 -153h2q98 0 150.5 64.5t52.5 187.5v577h-657q-20 0 -36 15.5t-16 35.5v215q0 23 15.5 37.5t36.5 14.5h1001q23 0 38 -15.5t15 -38.5v-854q0 -174 -76.5 -298t-215 -186t-318.5 -62 q-160 0 -295 54t-218 161.5t-85 257.5z" />
<glyph unicode="K" horiz-adv-x="1368" d="M139 51v1329q0 23 14.5 38.5t36.5 15.5h275q23 0 37 -15.5t14 -38.5v-446l363 459q23 41 79 41h314q16 0 29.5 -13.5t13.5 -29.5t-8 -25l-478 -618l517 -680q8 -8 8 -25q0 -16 -13.5 -29.5t-31.5 -13.5h-322q-33 0 -53.5 13.5t-28.5 27.5l-389 500v-490 q0 -20 -14.5 -35.5t-36.5 -15.5h-275q-20 0 -35.5 15.5t-15.5 35.5z" />
<glyph unicode="L" horiz-adv-x="1228" d="M139 51v1331q0 23 15.5 37.5t35.5 14.5h287q23 0 37 -14.5t14 -37.5v-1060h615q23 0 38 -15.5t15 -38.5v-217q0 -23 -15.5 -37t-37.5 -14h-953q-20 0 -35.5 15.5t-15.5 35.5z" />
<glyph unicode="M" horiz-adv-x="1701" d="M139 51v1329q0 23 15.5 38.5t38.5 15.5h231q51 0 74 -45l352 -631l354 631q23 45 74 45h231q23 0 38.5 -15.5t15.5 -38.5v-1329q0 -23 -15.5 -37t-38.5 -14h-260q-20 0 -35.5 15.5t-15.5 35.5v746l-221 -406q-27 -47 -72 -47h-110q-41 0 -72 47l-219 406v-746 q0 -23 -15.5 -37t-37.5 -14h-258q-23 0 -38.5 14.5t-15.5 36.5z" />
<glyph unicode="N" horiz-adv-x="1476" d="M139 51v1329q0 23 14.5 38.5t36.5 15.5h232q47 0 70 -39l483 -764v749q0 23 14.5 38.5t36.5 15.5h260q23 0 37 -15.5t14 -38.5v-1327q0 -23 -14 -38t-37 -15h-231q-47 0 -70 39l-481 733v-721q0 -23 -15.5 -37t-37.5 -14h-261q-20 0 -35.5 15.5t-15.5 35.5z" />
<glyph unicode="O" horiz-adv-x="1464" d="M94 713q0 119 2 178q8 270 179 416.5t458 146.5q285 0 456 -146.5t179 -416.5q4 -119 4 -178q0 -61 -4 -176q-10 -274 -177 -415.5t-458 -141.5t-459 141t-178 416q-2 57 -2 176zM492 719q0 -111 2 -170q4 -133 67.5 -197.5t171.5 -64.5q107 0 170.5 64.5t67.5 197.5 q4 119 4 170t-4 166q-4 133 -67.5 197.5t-170.5 64.5q-109 0 -172 -64.5t-67 -197.5q-2 -57 -2 -166z" />
<glyph unicode="P" horiz-adv-x="1390" d="M139 51v1329q0 23 14.5 38.5t36.5 15.5h580q266 0 417.5 -121t151.5 -355q0 -233 -151.5 -348.5t-417.5 -115.5h-233v-443q0 -20 -14.5 -35.5t-37.5 -15.5h-295q-20 0 -35.5 15.5t-15.5 35.5zM530 786h230q84 0 132 44t48 131q0 80 -44 129t-136 49h-230v-353z" />
<glyph unicode="Q" horiz-adv-x="1464" d="M92 713q0 119 2 178q10 270 180 416.5t457 146.5t457 -146.5t180 -416.5q4 -119 4 -178q0 -61 -4 -176q-12 -250 -149 -392l151 -215q6 -12 6 -20v-6q0 -14 -12 -25.5t-29 -11.5h-282q-29 0 -46.5 13.5t-31.5 33.5l-70 90q-73 -24 -166 -24h-8q-291 0 -459 141t-178 416 q-2 57 -2 176zM492 719q0 -111 2 -170q4 -133 67.5 -197.5t169.5 -64.5q107 0 170.5 64.5t67.5 197.5q4 119 4 170t-4 166q-4 133 -67.5 197.5t-170.5 64.5q-106 0 -169.5 -64.5t-67.5 -197.5q-2 -57 -2 -166z" />
<glyph unicode="R" horiz-adv-x="1423" d="M139 51v1329q0 23 14.5 38.5t36.5 15.5h564q270 0 422.5 -123t152.5 -346q0 -143 -66.5 -243.5t-183.5 -156.5l277 -499q6 -12 6 -23q0 -16 -12.5 -29.5t-30.5 -13.5h-289q-59 0 -84 55l-225 445h-197v-449q0 -23 -15 -37t-38 -14h-281q-20 0 -35.5 15.5t-15.5 35.5z M524 801h228q88 0 134 44t46 122t-46 125t-134 47h-228v-338z" />
<glyph unicode="S" horiz-adv-x="1363" d="M57 393q0 18 13.5 30.5t31.5 12.5h273q25 0 40 -8t34 -29q27 -49 83 -80.5t150 -31.5q111 0 170 33.5t59 93.5q0 43 -30.5 70.5t-98 49t-194.5 48.5q-248 49 -371 149t-123 287q0 127 71 226t201 154.5t302 55.5q180 0 312 -62.5t202.5 -155.5t74.5 -183q0 -18 -12 -31.5 t-31 -13.5h-286q-45 0 -70 36q-12 43 -63.5 73t-126.5 30q-86 0 -133.5 -31t-47.5 -90t61.5 -93t229.5 -69q193 -35 306.5 -87t168 -135t54.5 -210q0 -139 -80 -241.5t-221.5 -156.5t-323.5 -54q-199 0 -338 57t-211 151.5t-76 204.5z" />
<glyph unicode="T" horiz-adv-x="1300" d="M41 1151v229q0 23 15.5 38.5t37.5 15.5h1112q23 0 38.5 -15.5t15.5 -38.5v-229q0 -23 -15.5 -37t-38.5 -14h-360v-1049q0 -23 -15.5 -37t-37.5 -14h-285q-23 0 -38 14.5t-15 36.5v1049h-361q-23 0 -38 14t-15 37z" />
<glyph unicode="U" horiz-adv-x="1490" d="M127 545v835q0 23 14.5 38.5t36.5 15.5h281q23 0 38 -15.5t15 -38.5v-831q0 -127 60.5 -190.5t172.5 -63.5q113 0 173.5 64.5t60.5 189.5v831q0 23 15.5 38.5t37.5 15.5h279q23 0 38 -15.5t15 -38.5v-835q0 -283 -164 -424t-452 -141q-291 0 -456 141t-165 424z" />
<glyph unicode="V" horiz-adv-x="1427" d="M45 1391q0 16 13.5 29.5t31.5 13.5h268q31 0 50.5 -17.5t25.5 -38.5l279 -925l280 925q6 23 25.5 39.5t50.5 16.5h268q18 0 30.5 -13.5t12.5 -29.5q0 -10 -2 -19l-415 -1311q-6 -27 -28 -44t-56 -17h-330q-35 0 -56.5 17.5t-29.5 43.5l-414 1311z" />
<glyph unicode="W" horiz-adv-x="1705" d="M66 1391q0 16 13 29.5t30 13.5h268q59 0 65 -48l125 -774l142 449q16 55 67 55h154q51 0 67 -55l142 -447l127 772q4 25 18 36.5t45 11.5h268q18 0 30.5 -13.5t12.5 -29.5v-13l-219 -1310q-4 -29 -26.5 -48.5t-55.5 -19.5h-206q-33 0 -51.5 16.5t-24.5 36.5l-203 568 l-203 -568q-8 -20 -26.5 -36.5t-51.5 -16.5h-204q-35 0 -56.5 19.5t-25.5 48.5l-219 1310q-2 4 -2 13z" />
<glyph unicode="X" horiz-adv-x="1425" d="M20 43q0 12 7 25l446 663l-412 635q-6 12 -6 25q0 16 13.5 29.5t29.5 13.5h314q45 0 73 -45l232 -357l239 357q29 45 72 45h299q16 0 29.5 -13.5t13.5 -29.5q0 -12 -6 -25l-416 -631l451 -667q6 -12 6 -25q0 -16 -13.5 -29.5t-29.5 -13.5h-324q-45 0 -71 41l-262 381 l-256 -381q-27 -41 -72 -41h-314q-16 0 -29.5 13.5t-13.5 29.5z" />
<glyph unicode="Y" horiz-adv-x="1400" d="M29 1391q0 16 13 29.5t30 13.5h270q29 0 47.5 -14.5t26.5 -30.5l284 -515l285 515q8 16 26.5 30.5t47.5 14.5h270q16 0 29.5 -13.5t13.5 -29.5q0 -12 -6 -23l-473 -881v-436q0 -23 -15.5 -37t-37.5 -14h-281q-20 0 -35.5 15.5t-15.5 35.5v436l-473 881q-6 10 -6 23z" />
<glyph unicode="Z" horiz-adv-x="1341" d="M76 53v209q0 27 8 41t22 33l652 780h-611q-20 0 -35.5 15.5t-15.5 35.5v213q0 23 14.5 38.5t36.5 15.5h1043q23 0 38 -15.5t15 -38.5v-206q0 -39 -26 -70l-629 -782h626q23 0 38.5 -15.5t15.5 -38.5v-217q0 -23 -15.5 -37t-38.5 -14h-1085q-23 0 -38 15.5t-15 37.5z" />
<glyph unicode="[" horiz-adv-x="794" d="M123 -274v1812q0 23 15.5 37t35.5 14h518q23 0 37 -14t14 -37v-186q0 -20 -14 -36t-37 -16h-239v-1312h239q23 0 37 -15.5t14 -35.5v-211q0 -23 -14 -37.5t-37 -14.5h-518q-20 0 -35.5 14.5t-15.5 37.5z" />
<glyph unicode="\" horiz-adv-x="1101" d="M45 1567q0 16 13.5 29.5t29.5 13.5h195q53 0 75 -51l693 -1668q4 -10 4 -20q0 -16 -12.5 -29.5t-30.5 -13.5h-191q-30 0 -48.5 15.5t-27.5 35.5l-696 1667q-4 10 -4 21z" />
<glyph unicode="]" horiz-adv-x="794" d="M51 -63q0 23 15.5 37t37.5 14h238v1312h-238q-23 0 -38 14.5t-15 37.5v186q0 23 15.5 37t37.5 14h517q23 0 37 -14t14 -37v-1812q0 -23 -14.5 -37.5t-36.5 -14.5h-517q-22 0 -37.5 14.5t-15.5 37.5v211z" />
<glyph unicode="^" horiz-adv-x="956" d="M94 1235q0 16 15 31l213 225q18 20 34.5 27.5t36.5 7.5h170q23 0 38 -7.5t36 -27.5l211 -225q16 -16 16 -31q0 -31 -33 -31h-100q-45 0 -72 15l-180 98l-180 -98q-27 -14 -72 -15h-102q-31 0 -31 31z" />
<glyph unicode="_" horiz-adv-x="1503" d="M90 -100v202q0 23 15.5 37.5t37.5 14.5h1219q23 0 37 -14.5t14 -37.5v-202q0 -23 -14.5 -38.5t-36.5 -15.5h-1219q-22 0 -37.5 15.5t-15.5 38.5z" />
<glyph unicode="`" horiz-adv-x="827" d="M121 1499q0 18 10 29.5t29 11.5h280q27 0 41.5 -7t34.5 -32l184 -223q10 -10 11 -27q0 -33 -33 -32h-195q-24 0 -40.5 7t-36.5 23l-275 226q-10 10 -10 24z" />
<glyph unicode="a" d="M51 299q0 139 116 226t318 120l254 39v25q0 76 -30.5 110.5t-104.5 34.5q-41 0 -68.5 -14.5t-62.5 -42.5q-27 -23 -47 -33q-8 -14 -20 -14h-238q-20 0 -33.5 13t-11.5 32q2 55 55 123.5t162 117.5t268 49q254 0 377 -111.5t123 -301.5v-621q0 -20 -14.5 -35.5 t-36.5 -15.5h-252q-20 0 -35.5 15.5t-15.5 35.5v72q-45 -63 -125 -103t-191 -40q-108 0 -197 41.5t-139.5 115.5t-50.5 162zM401 326q0 -47 40 -76t100 -29q90 0 146 59.5t56 172.5v24l-170 -28q-172 -33 -172 -123z" />
<glyph unicode="b" horiz-adv-x="1298" d="M117 51v1352q0 23 15 37t38 14h264q23 0 37 -14.5t14 -36.5v-436q112 118 294 118h3q197 0 311.5 -128t123.5 -351q2 -27 2 -74q0 -45 -2 -71q-8 -231 -122 -356t-313 -125q-206 0 -317 135v-64q0 -20 -14.5 -35.5t-36.5 -15.5h-244q-23 0 -38 14.5t-15 36.5zM483 541 q0 -49 2 -78q4 -86 47 -142.5t132 -56.5q92 0 132 54.5t46 150.5q2 20 2 63t-2 64q-6 96 -46 150.5t-132 54.5q-86 0 -130.5 -52.5t-48.5 -132.5q-2 -27 -2 -75z" />
<glyph unicode="c" d="M78 530l2 84q8 221 153.5 346t378.5 125q178 0 299 -63.5t180.5 -150.5t63.5 -158q2 -23 -14.5 -38.5t-38.5 -15.5h-275q-23 0 -35 10.5t-22 32.5q-23 57 -58.5 84t-90.5 27q-158 0 -164 -209l-2 -78l2 -67q2 -106 43 -156.5t121 -50.5q59 0 93 25.5t56 84.5 q10 23 22.5 33.5t34.5 10.5h275q20 0 36.5 -14.5t16.5 -35.5q0 -63 -56.5 -152t-179 -156.5t-307.5 -67.5q-233 0 -377.5 123.5t-154.5 345.5z" />
<glyph unicode="d" horiz-adv-x="1298" d="M80 532l2 74q8 223 122.5 351t311.5 128q184 0 297 -118v436q0 23 15.5 37t35.5 14h264q23 0 38.5 -14.5t15.5 -36.5v-1352q0 -23 -15.5 -37t-38.5 -14h-243q-20 0 -35.5 15.5t-15.5 35.5v64q-111 -135 -318 -135q-199 0 -312.5 124.5t-121.5 356.5zM455 532l2 -63 q6 -96 46 -150.5t132 -54.5q88 0 131 56.5t47 142.5q4 57 4 78q0 23 -4 75q-4 80 -48 132.5t-130 52.5q-92 0 -132 -54.5t-46 -150.5z" />
<glyph unicode="e" horiz-adv-x="1222" d="M76 504v63q8 244 151.5 381t386.5 137q176 0 298 -70.5t182.5 -194.5t60.5 -281v-52q0 -23 -15.5 -38t-37.5 -15h-649v-12q2 -92 43 -148.5t116 -56.5q49 0 79 19.5t57 50.5q18 20 29 25t36 5h268q18 0 31.5 -11t13.5 -27q0 -53 -60 -125t-176 -123t-274 -51 q-249 0 -392.5 134t-147.5 390zM453 643h325v4q0 98 -43 152.5t-121 54.5t-119.5 -54.5t-41.5 -152.5v-4z" />
<glyph unicode="f" horiz-adv-x="917" d="M33 838v176q0 23 15 37t38 14h154v61q0 205 118.5 297.5t339.5 92.5h162q23 0 38 -14.5t15 -37.5v-176q0 -23 -15 -37t-38 -14h-145q-66 0 -93.5 -29.5t-27.5 -91.5v-51h246q23 0 38 -14.5t15 -36.5v-176q0 -23 -15.5 -37.5t-37.5 -14.5h-246v-735q0 -20 -14.5 -35.5 t-36.5 -15.5h-250q-23 0 -38 14.5t-15 36.5v735h-154q-23 0 -38 14.5t-15 37.5z" />
<glyph unicode="g" horiz-adv-x="1306" d="M78 553q0 250 111.5 391t326.5 141q104 0 184 -39.5t134 -107.5v74q0 23 14 38t37 15h250q23 0 38 -15.5t15 -37.5v-981q0 -236 -141.5 -359t-397.5 -123q-196 0 -319 63.5t-176.5 146.5t-53.5 139q0 20 16.5 34.5t37.5 14.5h274q20 0 32.5 -9.5t22.5 -31.5 q20 -45 53 -70.5t103 -25.5q88 0 131 44t43 146v137q-108 -112 -294 -112h-3q-207 0 -316.5 119.5t-119.5 353.5zM455 551q0 -117 38.5 -183.5t139.5 -66.5q88 0 131 53.5t49 134.5q2 14 2 62q0 49 -2 61q-6 84 -49 136.5t-131 52.5q-90 0 -131 -54.5t-45 -150.5z" />
<glyph unicode="h" horiz-adv-x="1339" d="M117 51v1352q0 23 15 37t38 14h276q23 0 38.5 -14.5t15.5 -36.5v-457q119 139 321 139q117 0 211 -53t147.5 -157.5t53.5 -251.5v-572q0 -23 -15.5 -37t-37.5 -14h-279q-20 0 -35.5 15.5t-15.5 35.5v559q0 90 -45 140.5t-129 50.5q-82 0 -129 -50.5t-47 -140.5v-559 q0 -23 -15.5 -37t-38.5 -14h-276q-23 0 -38 14.5t-15 36.5z" />
<glyph unicode="i" horiz-adv-x="593" d="M117 51v963q0 23 15 37t36 14h256q23 0 38 -14.5t15 -36.5v-963q0 -23 -15.5 -37t-37.5 -14h-256q-21 0 -36 15.5t-15 35.5zM117 1266v190q0 23 15 38t36 15h256q23 0 38 -15t15 -38v-190q0 -23 -15.5 -38.5t-37.5 -15.5h-256q-23 0 -37 15.5t-14 38.5z" />
<glyph unicode="j" horiz-adv-x="630" d="M-113 -162q0 20 14.5 35.5t37.5 15.5h81q68 0 94.5 37t26.5 107v981q0 23 15.5 37t36.5 14h268q23 0 37 -14.5t14 -36.5v-989q0 -199 -119 -306.5t-332 -107.5h-122q-23 0 -37.5 14.5t-14.5 36.5v176zM139 1266v190q0 23 15.5 38t38.5 15h268q23 0 38 -15t15 -38v-190 q0 -23 -15.5 -38.5t-37.5 -15.5h-268q-23 0 -38.5 15.5t-15.5 38.5z" />
<glyph unicode="k" horiz-adv-x="1210" d="M117 51v1352q0 23 15 37t38 14h250q23 0 37 -14.5t14 -36.5v-684l272 311q4 4 15.5 14.5t24 15.5t30.5 5h289q18 0 31.5 -13.5t13.5 -33.5q0 -18 -14 -33l-361 -397l412 -510q14 -18 14 -31q0 -20 -13.5 -33.5t-33.5 -13.5h-297q-27 0 -40 8t-32 27l-311 385v-369 q0 -20 -14.5 -35.5t-36.5 -15.5h-250q-23 0 -38 14.5t-15 36.5z" />
<glyph unicode="l" horiz-adv-x="593" d="M117 51v1352q0 23 15 37t38 14h256q23 0 37 -14.5t14 -36.5v-1352q0 -20 -14 -35.5t-37 -15.5h-256q-23 0 -38 14.5t-15 36.5z" />
<glyph unicode="m" horiz-adv-x="1880" d="M117 51v963q0 23 15 37t36 14h238q23 0 37 -14.5t14 -36.5v-70q49 59 127 100t176 41q225 0 309 -176q49 78 137 127t189 49q168 0 273.5 -113.5t105.5 -338.5v-582q0 -20 -14.5 -35.5t-37.5 -15.5h-252q-23 0 -38 14.5t-15 36.5v567q0 94 -40 138.5t-107 44.5 q-63 0 -103.5 -44t-40.5 -139v-567q0 -20 -14 -35.5t-37 -15.5h-252q-23 0 -38 14.5t-15 36.5v567q0 94 -41 138.5t-106 44.5q-63 0 -104.5 -44t-41.5 -136v-570q0 -20 -14 -35.5t-37 -15.5h-258q-21 0 -36 15.5t-15 35.5z" />
<glyph unicode="n" horiz-adv-x="1323" d="M117 51v963q0 23 15 37t36 14h252q23 0 37 -14.5t14 -36.5v-78q55 68 142 108.5t200 40.5q117 0 208 -53t143.5 -157.5t52.5 -251.5v-572q0 -20 -14.5 -35.5t-37.5 -15.5h-272q-23 0 -38 14.5t-15 36.5v559q0 92 -44 141.5t-128 49.5q-82 0 -129 -50.5t-47 -140.5v-559 q0 -20 -14.5 -35.5t-37.5 -15.5h-272q-21 0 -36 15.5t-15 35.5z" />
<glyph unicode="o" horiz-adv-x="1257" d="M80 532q0 66 2 93q12 217 154.5 338.5t392.5 121.5t392 -121.5t155 -338.5q4 -53 4 -93q0 -39 -4 -92q-12 -221 -150.5 -340.5t-396.5 -119.5t-396.5 119.5t-150.5 340.5q-2 27 -2 92zM455 532l2 -81q6 -109 47 -161t125 -52t125 52t47 161q2 20 2 81t-2 82 q-6 106 -47 159.5t-125 53.5t-125 -53t-47 -160z" />
<glyph unicode="p" horiz-adv-x="1298" d="M117 -338v1352q0 23 15 37t38 14h244q23 0 37 -14.5t14 -36.5v-74q111 145 317 145q199 0 312.5 -123.5t122.5 -353.5q2 -27 2 -76t-2 -77q-8 -221 -123 -348t-312 -127q-199 0 -297 135v-453q0 -23 -14 -37t-37 -14h-264q-23 0 -38 14.5t-15 36.5zM483 524q0 -49 2 -75 q4 -80 48.5 -132.5t130.5 -52.5q92 0 132 54.5t46 150.5q2 20 2 63t-2 64q-6 96 -46 150.5t-132 54.5q-88 0 -131.5 -56.5t-47.5 -142.5q-2 -27 -2 -78z" />
<glyph unicode="q" horiz-adv-x="1298" d="M80 532l2 76q8 229 121.5 353t314.5 124q106 0 185 -38.5t131 -106.5v74q0 23 15 37t38 14h243q23 0 37.5 -14.5t14.5 -36.5v-1352q0 -23 -14.5 -37t-37.5 -14h-264q-22 0 -37.5 14.5t-15.5 36.5v453q-98 -135 -295 -135q-199 0 -313.5 126.5t-122.5 348.5zM457 532 q0 -43 2 -63q6 -96 45 -150.5t131 -54.5q86 0 130 52.5t48 132.5q4 53 4 75q0 25 -4 78q-4 88 -46 143.5t-132 55.5q-92 0 -131 -54.5t-45 -150.5q-2 -20 -2 -64z" />
<glyph unicode="r" horiz-adv-x="944" d="M117 51v961q0 23 14 38t37 15h250q23 0 38 -15.5t15 -37.5v-78q57 63 134 97t171 34h92q23 0 37.5 -14.5t14.5 -36.5v-223q0 -20 -14.5 -36t-37.5 -16h-206q-82 0 -126 -45t-44 -127v-516q0 -23 -15.5 -37t-38.5 -14h-270q-21 0 -36 15.5t-15 35.5z" />
<glyph unicode="s" horiz-adv-x="1140" d="M61 258q0 20 15.5 33.5t34.5 13.5h247q12 0 21 -8q35 -23 39 -27q39 -29 72.5 -44t80.5 -15q55 0 91 21.5t36 60.5q0 33 -19.5 53.5t-73.5 40t-165 39.5q-354 72 -354 328q0 84 54.5 160.5t160 123.5t252.5 47q150 0 259.5 -46t166.5 -110.5t57 -117.5q0 -18 -13 -32.5 t-32 -14.5h-225q-18 0 -29 8q-25 12 -49 31q-37 25 -64.5 38t-70.5 13q-51 0 -80 -22.5t-29 -57.5q0 -31 17.5 -50t72 -37.5t164.5 -39.5q201 -35 292 -124t91 -208q0 -154 -136 -244.5t-382 -90.5q-168 0 -280.5 47t-167 112.5t-54.5 118.5z" />
<glyph unicode="t" horiz-adv-x="970" d="M29 838v176q0 23 15 37t36 14h162v338q0 23 15 37t36 14h252q23 0 37 -14.5t14 -36.5v-338h256q23 0 38 -14.5t15 -36.5v-176q0 -23 -15.5 -37.5t-37.5 -14.5h-256v-348q0 -72 26.5 -108.5t86.5 -36.5h161q23 0 37.5 -15.5t14.5 -37.5v-189q0 -20 -14.5 -35.5 t-37.5 -15.5h-194q-434 0 -434 408v378h-162q-20 0 -35.5 15.5t-15.5 36.5z" />
<glyph unicode="u" horiz-adv-x="1318" d="M106 442v572q0 23 15.5 37t36.5 14h272q23 0 38 -14.5t15 -36.5v-559q0 -190 170 -191q82 0 128 50.5t46 140.5v559q0 23 15.5 37t38.5 14h270q23 0 37 -14.5t14 -36.5v-963q0 -20 -14 -35.5t-37 -15.5h-250q-23 0 -38 14.5t-15 36.5v78q-105 -149 -337 -149h-3 q-180 0 -291 120.5t-111 341.5z" />
<glyph unicode="v" horiz-adv-x="1226" d="M37 1018q0 20 13 33.5t34 13.5h244q43 0 61 -43l223 -612l226 612q6 16 20 29.5t39 13.5h246q18 0 32.5 -13.5t14.5 -33.5l-4 -17l-387 -950q-10 -25 -26.5 -38t-45.5 -13h-229q-29 0 -44.5 13.5t-25.5 37.5l-389 950q-2 6 -2 17z" />
<glyph unicode="w" horiz-adv-x="1722" d="M49 1018q0 20 14.5 33.5t32.5 13.5h223q25 0 41.5 -13.5t20.5 -29.5l168 -567l178 563q4 18 20.5 32.5t43.5 14.5h141q27 0 43 -14.5t22 -32.5l179 -563l165 567q6 16 21.5 29.5t40.5 13.5h223q20 0 33.5 -13.5t13.5 -33.5q0 -10 -2 -19l-297 -948q-14 -51 -65 -51h-195 q-51 0 -70 51l-182 545l-184 -545q-14 -51 -68 -51h-194q-29 0 -44.5 13.5t-23.5 37.5l-295 948z" />
<glyph unicode="x" d="M29 47q0 16 12 31l340 469l-309 440q-12 16 -13 31q0 20 14.5 33.5t32.5 13.5h265q25 0 37 -10.5t24 -26.5l180 -252l183 252q2 2 10 12.5t21.5 17.5t29.5 7h252q18 0 32.5 -13.5t14.5 -31.5q0 -16 -12 -33l-316 -440l347 -469q10 -14 10 -31q0 -20 -13.5 -33.5 t-33.5 -13.5h-277q-35 0 -57 33l-199 270l-201 -270q-12 -16 -24 -24.5t-35 -8.5h-268q-19 0 -33 13.5t-14 33.5z" />
<glyph unicode="y" horiz-adv-x="1230" d="M41 1018q4 20 17.5 33.5t31.5 13.5h244q43 0 59 -43l228 -582l233 582q20 43 61 43h242q18 0 31.5 -13.5t13.5 -29.5q0 -14 -4 -27l-580 -1341q-20 -43 -63 -43h-238q-18 0 -30.5 12t-12.5 31q0 14 5 27l161 385l-393 929q-6 16 -6 23z" />
<glyph unicode="z" horiz-adv-x="1140" d="M78 51v170q0 37 31 68l473 502h-437q-20 0 -35.5 15t-15.5 36v172q0 23 15.5 37t35.5 14h834q23 0 37 -14.5t14 -36.5v-185q0 -33 -29 -61l-458 -494h479q23 0 37 -14t14 -37v-172q0 -20 -14.5 -35.5t-36.5 -15.5h-893q-20 0 -35.5 15.5t-15.5 35.5z" />
<glyph unicode="{" horiz-adv-x="882" d="M16 594v78q0 31 13.5 49t44.5 35l26 12q111 55 111 229q0 193 72.5 325t199.5 198.5t291 68.5h12q20 0 32.5 -13t12.5 -32v-196q0 -18 -12 -30.5t-28 -14.5h-7q-129 -10 -186 -86t-57 -248q0 -127 -42 -216t-110 -120q66 -31 109 -123t43 -213q0 -170 56 -247t183 -87h11 q16 -2 28 -14t12 -31v-197q0 -20 -12 -32.5t-33 -12.5h-10q-164 2 -292 68t-200.5 199t-72.5 325q0 174 -111 232l-26 10q-31 16 -44.5 34.5t-13.5 49.5z" />
<glyph unicode="|" horiz-adv-x="548" d="M125 -375v2159q0 23 15.5 37t35.5 14h195q23 0 38 -14.5t15 -36.5v-2159q0 -23 -15.5 -37t-37.5 -14h-195q-20 0 -35.5 14.5t-15.5 36.5z" />
<glyph unicode="}" horiz-adv-x="882" d="M49 -82q0 18 12.5 30.5t28.5 14.5h8q129 10 186.5 87t57.5 247q0 127 42 216t110 120q-66 31 -109 123t-43 211q0 170 -57.5 246.5t-184.5 86.5l-10 3q-16 2 -28.5 14t-12.5 31v196q0 18 13.5 31.5t31.5 13.5h10q164 -2 292 -67.5t201 -197.5t73 -327q0 -174 112 -231 l27 -12q29 -16 42 -35t13 -47v-80q0 -29 -13 -47.5t-42 -34.5l-27 -12q-113 -55 -112 -230q0 -193 -73 -325.5t-199 -198.5t-289 -68h-15q-18 0 -31.5 12.5t-13.5 32.5v197z" />
<glyph unicode="~" horiz-adv-x="1134" d="M121 496v161q0 59 64.5 103.5t160.5 44.5q66 0 118 -11.5t116 -31.5q70 -20 112.5 -29.5t100.5 -9.5q45 0 79.5 16.5t65.5 40.5q2 2 12.5 8.5t22.5 6.5q25 0 34 -14.5t9 -47.5v-164q0 -59 -64.5 -102t-160.5 -43q-63 0 -113.5 10t-118.5 31q-59 18 -107.5 28.5 t-107.5 10.5q-72 0 -145 -55q-18 -14 -37 -17q-23 0 -32 15.5t-9 48.5z" />
<glyph unicode="&#xa1;" horiz-adv-x="589" d="M113 745v265q0 23 15 37t36 14h264q23 0 37 -14.5t14 -36.5v-265q0 -23 -15 -38t-36 -15h-264q-20 0 -35.5 15.5t-15.5 37.5zM119 -322v867q0 23 15.5 38t37.5 15h248q22 0 37.5 -15.5t15.5 -37.5v-867q0 -23 -15.5 -37t-37.5 -14h-248q-23 0 -38 14.5t-15 36.5z" />
<glyph unicode="&#xa2;" horiz-adv-x="1228" d="M80 530l2 84q6 180 104.5 297t262.5 154v133q0 23 15 37t38 14h213q23 0 38 -14t15 -37v-129q131 -27 218 -93.5t128 -141t41 -125.5q0 -20 -15.5 -35t-35.5 -15h-277q-20 0 -32.5 10.5t-22.5 32.5q-43 111 -156 111q-74 0 -115.5 -53t-43.5 -156l-2 -78l2 -67 q8 -207 159 -207q59 0 96.5 25.5t59.5 84.5q16 43 55 44h277q20 0 35.5 -14.5t15.5 -35.5q0 -49 -40 -123.5t-127 -142t-220 -94.5v-150q0 -23 -15.5 -37t-37.5 -14h-213q-23 0 -38 14.5t-15 36.5v152q-164 37 -261.5 153.5t-105.5 297.5z" />
<glyph unicode="&#xa3;" horiz-adv-x="1484" d="M86 37q4 127 64.5 220t162.5 136q-2 47 -18 164h-156q-20 0 -35.5 15.5t-15.5 35.5v164q0 23 15.5 37t35.5 14h97q-4 31 -5 97q0 260 146.5 398t423.5 138q172 0 304 -59.5t206.5 -168t77.5 -255.5q0 -18 -12.5 -31.5t-30.5 -13.5h-291q-53 0 -72 53q-23 86 -67 127 t-117 41q-170 0 -170 -231q0 -33 4 -95h299q23 0 37 -14t14 -37v-164q0 -20 -14.5 -35.5t-36.5 -15.5h-285q2 -16 6 -69.5t2 -100.5q59 -12 146 -53q49 -25 84 -36t78 -11q61 0 99 29.5t62 84.5q14 25 37 25h197q18 0 28.5 -11.5t10.5 -27.5q-2 -125 -56.5 -216t-139.5 -139 t-181 -48q-82 0 -148.5 20.5t-152.5 61.5q-72 31 -113 45t-88 14q-53 0 -84 -24.5t-49 -73.5q-8 -27 -35 -27h-225q-16 0 -27.5 10t-11.5 27z" />
<glyph unicode="&#xa4;" horiz-adv-x="1259" d="M102 248q0 23 15 37l92 92q-63 109 -64 237q0 129 64 238l-92 92q-14 14 -15 37q0 23 15 37l110 110q16 16 37 17q23 0 35 -17l94 -94q109 66 238 66q123 0 237 -66l93 94q16 16 36 17q20 0 37 -17l111 -110q14 -14 14 -37t-14 -37l-94 -92q63 -113 63 -238t-63 -237 l94 -92q14 -14 14 -37t-14 -37l-111 -111q-14 -14 -37 -14t-36 14l-93 95q-109 -66 -237 -66q-135 0 -238 66l-94 -95q-12 -14 -35 -14t-37 14l-110 111q-14 14 -15 37zM406 614q0 -94 65.5 -159.5t159.5 -65.5t159.5 65.5t65.5 159.5t-65.5 160t-159.5 66t-159.5 -65.5 t-65.5 -160.5z" />
<glyph unicode="&#xa5;" horiz-adv-x="1423" d="M55 1391q0 16 13.5 29.5t31.5 13.5h271q29 0 47 -14.5t26 -30.5l269 -496l266 496q8 16 26.5 30.5t47.5 14.5h272q16 0 29.5 -13.5t13.5 -29.5q0 -13 -6 -23l-412 -782h217q23 0 37.5 -14.5t14.5 -36.5v-170q0 -20 -14.5 -36t-37.5 -16h-262v-262q0 -23 -15.5 -37 t-37.5 -14h-281q-20 0 -35.5 15.5t-15.5 35.5v262h-262q-20 0 -35.5 15.5t-15.5 36.5v170q0 23 15.5 37t35.5 14h217l-414 782q-6 18 -6 23z" />
<glyph unicode="&#xa6;" horiz-adv-x="557" d="M129 51v623q0 23 15.5 37t37.5 14h195q23 0 37 -14.5t14 -36.5v-623q0 -20 -14.5 -35.5t-36.5 -15.5h-195q-22 0 -37.5 14.5t-15.5 36.5zM129 1024v623q0 23 15.5 37t37.5 14h195q23 0 37 -14.5t14 -36.5v-623q0 -20 -14.5 -35.5t-36.5 -15.5h-195q-22 0 -37.5 14 t-15.5 37z" />
<glyph unicode="&#xa7;" horiz-adv-x="1245" d="M68 629q0 164 145 276q-39 63 -39 158q0 106 54.5 195.5t160 142.5t252.5 53t257 -48t168 -118.5t62 -136.5v-4q0 -18 -13 -29.5t-32 -11.5h-237q-20 0 -31.5 7t-26.5 26q-20 33 -50.5 51t-92.5 18q-55 0 -86 -30.5t-31 -77.5q0 -37 17.5 -60.5t70 -46t156.5 -47.5 q223 -59 315.5 -152.5t92.5 -254.5q0 -84 -39 -154t-109 -123q41 -63 41 -158q0 -106 -54 -195t-160.5 -142.5t-254.5 -53.5q-147 0 -256.5 48.5t-168 120t-62.5 136.5v5q0 18 13 29t32 11h239q33 0 54 -30q20 -35 51 -54.5t94 -19.5q55 0 86 30.5t31 78.5q0 37 -17.5 60.5 t-69.5 46t-157 46.5q-223 59 -314 152.5t-91 255.5zM393 645q0 -53 38 -86t147 -67q147 -45 194 -62q82 22 82 92q0 55 -39 88t-143 64q-76 20 -197 61q-41 -8 -61.5 -32.5t-20.5 -57.5z" />
<glyph unicode="&#xa8;" horiz-adv-x="952" d="M117 1286v197q0 20 12 33.5t33 13.5h196q20 0 34 -13.5t14 -33.5v-197q0 -20 -13.5 -32.5t-34.5 -12.5h-196q-21 0 -33 12.5t-12 32.5zM547 1286v197q0 20 13 33.5t34 13.5h194q20 0 34 -13.5t14 -33.5v-197q0 -20 -13.5 -32.5t-34.5 -12.5h-194q-21 0 -34 12.5t-13 32.5 z" />
<glyph unicode="&#xa9;" horiz-adv-x="1650" d="M88 717q0 201 99.5 369.5t268.5 268t369 99.5q201 0 370 -99.5t268.5 -268t99.5 -369.5t-99.5 -370t-268.5 -268t-370 -99q-200 0 -369 99t-268.5 268t-99.5 370zM266 717q0 -154 75 -285t203 -208t281 -77q154 0 282 77t202.5 208t74.5 285t-74.5 285t-202.5 207.5 t-282 76.5t-281.5 -76.5t-202.5 -208t-75 -284.5zM473 719l2 76q8 143 100.5 231t249.5 88q115 0 195 -38t120 -95t42 -117v-4q0 -18 -13.5 -29.5t-31.5 -11.5h-144q-20 0 -31.5 12.5t-19.5 30.5q-16 37 -42 53.5t-75 16.5q-66 0 -90 -40t-28 -104l-2 -69l2 -70 q4 -63 28.5 -103t89.5 -40q49 0 75 16.5t42 52.5q8 18 19.5 30.5t31.5 12.5h144q20 0 33.5 -12t11.5 -33q-2 -59 -42 -116.5t-120 -95t-195 -37.5q-157 0 -249.5 88t-100.5 231z" />
<glyph unicode="&#xaa;" horiz-adv-x="729" d="M70 1040q0 76 60 122t171 65l117 18q0 31 -10.5 46.5t-45.5 15.5q-29 0 -57 -21q-20 -16 -39 -16h-131q-12 0 -20.5 6t-8.5 18q0 29 30 64t88.5 60.5t142.5 25.5q129 0 194.5 -57.5t65.5 -167.5v-295q0 -14 -9.5 -24.5t-23.5 -10.5h-133q-14 0 -25.5 10t-11.5 25v22 q-20 -31 -62.5 -49t-91.5 -18q-88 0 -144 46t-56 115zM268 1053q0 -14 15.5 -23.5t40.5 -9.5q47 0 70.5 27.5t23.5 76.5l-70 -14q-80 -16 -80 -57z" />
<glyph unicode="&#xab;" horiz-adv-x="1273" d="M61 623v102q0 35 31 61l424 412q18 16 35 16q18 0 31.5 -13t13.5 -32v-202q0 -31 -8 -48.5t-29 -37.5l-211 -207l211 -207q20 -20 28.5 -37.5t8.5 -48.5v-203q0 -18 -13.5 -31.5t-31.5 -13.5q-17 1 -35 17l-424 411q-31 29 -31 62zM627 623v102q0 35 30 61l424 412 q18 16 37 16q18 0 30.5 -13t12.5 -32v-202q0 -31 -8 -48.5t-29 -37.5l-209 -207l209 -207q20 -20 28.5 -37.5t8.5 -48.5v-203q0 -18 -12 -31.5t-31 -13.5q-19 1 -37 17l-424 411q-31 29 -30 62z" />
<glyph unicode="&#xac;" horiz-adv-x="1167" d="M109 498v168q0 23 15 37t38 14h829q23 0 37 -14.5t14 -36.5v-426q0 -20 -14 -36t-37 -16h-172q-20 0 -35.5 15.5t-15.5 36.5v204h-606q-23 0 -38 15.5t-15 38.5z" />
<glyph unicode="&#xad;" horiz-adv-x="512" />
<glyph unicode="&#xae;" horiz-adv-x="1650" d="M88 717q0 201 99.5 369.5t268.5 268t369 99.5q201 0 370 -99.5t268.5 -268t99.5 -369.5t-99.5 -370t-268.5 -268t-370 -99q-200 0 -369 99t-268.5 268t-99.5 370zM266 717q0 -154 75 -285t203 -208t281 -77q154 0 282 77t202.5 208t74.5 285t-74.5 285t-202.5 207.5 t-282 76.5t-281.5 -76.5t-202.5 -208t-75 -284.5zM524 389v660q0 20 12.5 32.5t32.5 12.5h287q131 0 221 -60.5t90 -189.5q0 -78 -34.5 -131.5t-90.5 -79.5l109 -215q8 -16 8 -29q0 -18 -11 -31.5t-34 -13.5h-127q-41 0 -59 39l-94 209h-89v-203q0 -20 -12 -32.5t-33 -12.5 h-131q-20 0 -32.5 12.5t-12.5 32.5zM745 766h109q45 0 66.5 21.5t21.5 56.5t-21.5 56.5t-66.5 21.5h-109v-156z" />
<glyph unicode="&#xaf;" horiz-adv-x="907" d="M117 1284v152q0 20 12 32.5t33 12.5h583q20 0 33 -12.5t13 -32.5v-152q0 -20 -12.5 -33.5t-33.5 -13.5h-583q-21 0 -33 13.5t-12 33.5z" />
<glyph unicode="&#xb0;" horiz-adv-x="845" d="M61 1104q0 98 48.5 178t131.5 126t181 46t181 -46t131 -126t48 -178t-48 -178t-131 -126t-181 -46t-181 46t-131.5 126t-48.5 178zM266 1104q0 -70 43 -113t113 -43t113 43t43 113t-43 113t-113 43t-113 -43t-43 -113z" />
<glyph unicode="&#xb1;" horiz-adv-x="1165" d="M100 791v157q0 23 15.5 37t36.5 14h292v291q0 23 14.5 38t37.5 15h178q23 0 37 -15t14 -38v-291h289q23 0 37 -14t14 -37v-157q0 -23 -14.5 -38.5t-36.5 -15.5h-289v-299q0 -23 -14.5 -38t-36.5 -15h-178q-23 0 -37.5 15.5t-14.5 37.5v299h-292q-23 0 -37.5 15.5 t-14.5 38.5zM121 51v160q0 23 15.5 37t35.5 14h821q23 0 37 -14.5t14 -36.5v-160q0 -20 -14 -35.5t-37 -15.5h-821q-20 0 -35.5 15.5t-15.5 35.5z" />
<glyph unicode="&#xb2;" horiz-adv-x="733" d="M53 762v72q0 16 10.5 31.5t38.5 37.5q80 57 101 74q137 98 182 140t45 89q0 29 -17.5 47.5t-52.5 18.5q-39 0 -54 -15.5t-25 -39.5q-12 -23 -22.5 -30t-27.5 -7h-127q-37 0 -36 39q6 96 90 160.5t202 64.5q131 0 209 -62.5t78 -167.5q0 -88 -59.5 -155.5t-200.5 -163.5 h246q20 0 32.5 -12.5t12.5 -32.5v-88q0 -20 -12.5 -32.5t-32.5 -12.5h-535q-20 0 -32.5 12t-12.5 33z" />
<glyph unicode="&#xb3;" horiz-adv-x="727" d="M45 893v4q0 14 12.5 24.5t22.5 10.5h82q29 0 69 -8q12 -4 27.5 -16.5t33 -19.5t52.5 -7q45 0 70.5 17t25.5 46q0 33 -22.5 45t-69.5 12h-94q-18 0 -29.5 12.5t-11.5 30.5v52q0 23 20 43l117 108h-225q-20 0 -32.5 12.5t-12.5 32.5v97q0 20 12 32.5t33 12.5h461 q20 0 32.5 -12.5t12.5 -32.5v-84q0 -18 -5 -30.5t-24 -25.5l-127 -100q195 -33 195 -211q0 -104 -87 -167.5t-231 -63.5q-104 0 -171.5 29.5t-99.5 71.5t-36 85z" />
<glyph unicode="&#xb4;" horiz-adv-x="827" d="M117 1251q0 16 10 27l182 223q20 25 35.5 32t40.5 7h283q18 0 28.5 -11t10.5 -30q0 -14 -11 -24l-274 -226q-20 -16 -36.5 -23t-43.5 -7h-192q-33 -1 -33 32z" />
<glyph unicode="&#xb5;" horiz-adv-x="1353" d="M125 -356v1370q0 23 15.5 37t35.5 14h279q23 0 38 -14.5t15 -36.5v-559q0 -88 50 -139.5t124 -51.5t124 51.5t50 139.5v559q0 23 15.5 37t37.5 14h271q23 0 37 -14.5t14 -36.5v-963q0 -20 -14.5 -35.5t-36.5 -15.5h-250q-23 0 -38 14.5t-15 36.5v78q-82 -117 -232 -117 q-68 0 -137 35v-403q0 -23 -15.5 -37.5t-37.5 -14.5h-279q-20 0 -35.5 14.5t-15.5 37.5z" />
<glyph unicode="&#xb6;" horiz-adv-x="1302" d="M53 1044q0 106 52.5 195.5t141.5 142t195 52.5h672q23 0 37 -14.5t14 -37.5v-1536q0 -23 -14 -37t-37 -14h-176q-23 0 -38 14.5t-15 36.5v1344h-162v-1344q0 -23 -14.5 -37t-36.5 -14h-176q-23 0 -38.5 14.5t-15.5 36.5v807q-106 0 -195 52.5t-141.5 142.5t-52.5 196z " />
<glyph unicode="&#xb7;" horiz-adv-x="675" d="M78 682q0 70 34.5 130t95 95t130.5 35t130 -35t95 -95t35 -130t-35 -129t-95 -94t-130 -35t-130.5 35t-95 94t-34.5 129z" />
<glyph unicode="&#xb8;" horiz-adv-x="604" d="M117 -367q0 12 10 21l39 33q10 10 22 10q8 0 37 -13.5t64 -13.5q31 0 49 17.5t18 44.5q0 25 -18.5 41t-48.5 16q-18 0 -46 -7t-40 -7q-16 0 -29 12l-41 41q-12 12 -12 25q0 12 14 41l72 161h131l-80 -155q14 6 33.5 9t34.5 3q74 0 117.5 -50t43.5 -130t-53 -131.5 t-145 -51.5q-68 0 -120 28t-52 56z" />
<glyph unicode="&#xb9;" horiz-adv-x="563" d="M20 1217q0 20 19 34l219 168q20 14 47 15h129q20 0 32.5 -12.5t12.5 -32.5v-627q0 -20 -12 -32.5t-33 -12.5h-133q-20 0 -32.5 12t-12.5 33v420l-104 -78q-10 -8 -27 -8q-20 0 -37 18l-57 74q-10 14 -11 29z" />
<glyph unicode="&#xba;" horiz-adv-x="724" d="M76 1161l2 56q6 111 80.5 169t203.5 58t204 -58.5t81 -168.5q2 -10 2 -56q0 -45 -2 -55q-6 -111 -77.5 -169t-207.5 -58q-135 0 -206.5 58t-77.5 169zM289 1161l2 -45q4 -47 19.5 -66.5t51.5 -19.5q37 0 52.5 19.5t19.5 66.5q2 10 2 45t-2 45q-2 43 -18.5 64.5 t-53.5 21.5t-53 -21.5t-18 -64.5z" />
<glyph unicode="&#xbb;" horiz-adv-x="1273" d="M113 178v203q0 31 8 48t29 38l210 207l-210 207q-20 20 -28.5 37.5t-8.5 48.5v202q0 18 13 31.5t32 13.5q16 0 35 -16l423 -412q31 -27 31 -61v-102q0 -33 -31 -62l-423 -411q-18 -16 -35 -17q-19 0 -32 13.5t-13 31.5zM680 178v203q0 31 8 48t29 38l209 207l-209 207 q-20 20 -28.5 37.5t-8.5 48.5v202q0 18 12.5 31.5t30.5 13.5t35 -16l426 -412q29 -27 30 -61v-102q-2 -33 -30 -62l-426 -411q-16 -16 -35 -17q-18 0 -30.5 13.5t-12.5 31.5z" />
<glyph unicode="&#xbc;" horiz-adv-x="1562" d="M20 1217q0 20 19 34l219 168q20 14 47 15h129q20 0 32.5 -12.5t12.5 -32.5v-627q0 -20 -12 -32.5t-33 -12.5h-133q-20 0 -32.5 12t-12.5 33v420l-104 -78q-10 -8 -27 -8q-20 0 -37 18l-57 74q-10 14 -11 29zM102 41q0 12 8 22l1010 1332q14 20 29.5 29.5t42.5 9.5h112 q20 0 33.5 -11.5t13.5 -29.5q0 -12 -8 -23l-1011 -1331q-16 -20 -30.5 -29.5t-41.5 -9.5h-113q-20 0 -32.5 11.5t-12.5 29.5zM809 158v100q0 29 25 61l268 359q27 37 61 37h170q20 0 32.5 -12.5t12.5 -32.5v-369h72q20 0 32.5 -12.5t12.5 -32.5v-98q0 -20 -12.5 -32.5 t-32.5 -12.5h-72v-70q0 -20 -12 -32.5t-33 -12.5h-127q-20 0 -32.5 12t-12.5 33v70h-307q-20 0 -32.5 12t-12.5 33zM1030 295h135v190z" />
<glyph unicode="&#xbd;" horiz-adv-x="1570" d="M20 1217q0 20 19 34l219 168q20 14 47 15h129q20 0 32.5 -12.5t12.5 -32.5v-627q0 -20 -12 -32.5t-33 -12.5h-133q-20 0 -32.5 12t-12.5 33v420l-104 -78q-10 -8 -27 -8q-20 0 -37 18l-57 74q-10 14 -11 29zM102 41q0 12 8 22l1010 1332q14 20 29.5 29.5t42.5 9.5h112 q20 0 33.5 -11.5t13.5 -29.5q0 -12 -8 -23l-1011 -1331q-16 -20 -30.5 -29.5t-41.5 -9.5h-113q-20 0 -32.5 11.5t-12.5 29.5zM872 45v72q0 16 10.5 31.5t38.5 37.5q80 57 101 74q137 98 182 140t45 89q0 29 -17.5 47.5t-52.5 18.5q-39 0 -54 -15.5t-25 -39.5 q-12 -23 -22.5 -30t-27.5 -7h-127q-37 0 -36 39q6 96 90 160.5t202 64.5q131 0 209 -62.5t78 -166.5q0 -88 -59.5 -156t-200.5 -164h246q20 0 32.5 -12.5t12.5 -32.5v-88q0 -20 -12.5 -32.5t-32.5 -12.5h-535q-20 0 -32.5 12t-12.5 33z" />
<glyph unicode="&#xbe;" horiz-adv-x="1691" d="M45 893v4q0 14 12.5 24.5t22.5 10.5h82q29 0 69 -8q12 -4 27.5 -16.5t33 -19.5t52.5 -7q45 0 70.5 17t25.5 46q0 33 -22.5 45t-69.5 12h-94q-18 0 -29.5 12.5t-11.5 30.5v52q0 23 20 43l117 108h-225q-20 0 -32.5 12.5t-12.5 32.5v97q0 20 12 32.5t33 12.5h461 q20 0 32.5 -12.5t12.5 -32.5v-84q0 -18 -5 -30.5t-24 -25.5l-127 -100q195 -33 195 -211q0 -104 -87 -167.5t-231 -63.5q-104 0 -171.5 29.5t-99.5 71.5t-36 85zM266 41q0 12 8 22l1010 1332q14 20 29.5 29.5t42.5 9.5h112q20 0 33.5 -11.5t13.5 -29.5q0 -12 -8 -23 l-1011 -1331q-16 -20 -30.5 -29.5t-41.5 -9.5h-113q-20 0 -32.5 11.5t-12.5 29.5zM979 156v100q0 29 25 61l268 359q27 37 61 37h170q20 0 32.5 -12.5t12.5 -32.5v-369h72q20 0 32.5 -12.5t12.5 -32.5v-98q0 -20 -12.5 -32.5t-32.5 -12.5h-72v-70q0 -20 -12 -32.5t-33 -12.5 h-127q-20 0 -32.5 12t-12.5 33v70h-307q-20 0 -32.5 12t-12.5 33zM1200 293h135v190z" />
<glyph unicode="&#xbf;" horiz-adv-x="1224" d="M55 -20q0 104 47.5 182t135.5 174q55 61 83.5 98t47.5 80q8 18 14 51q16 31 29.5 43.5t36.5 12.5h303q16 0 28.5 -12.5t12.5 -28.5q0 -29 -2 -43q-14 -84 -64.5 -152t-136.5 -152q-63 -61 -96 -103t-35 -83q-6 -59 38 -96t109 -37q152 0 187 145q10 25 24 37.5t41 12.5 h266q20 0 33.5 -15.5t13.5 -40.5q-4 -111 -71.5 -213t-200.5 -166.5t-317 -64.5q-188 0 -306 58.5t-169.5 142.5t-51.5 170zM418 768v244q0 23 15.5 37t37.5 14h274q23 0 38.5 -14.5t15.5 -36.5v-244q0 -23 -15.5 -38t-38.5 -15h-274q-23 0 -38 15t-15 38z" />
<glyph unicode="&#xc0;" horiz-adv-x="1474" d="M16 43q0 12 2 18l478 1313q20 59 82 60h319q61 0 82 -60l477 -1313q2 -6 2 -18q0 -16 -13 -29.5t-30 -13.5h-266q-49 0 -70 45l-73 199h-537l-74 -199q-20 -45 -69 -45h-267q-16 0 -29.5 13.5t-13.5 29.5zM301 1817q0 18 10 29.5t29 11.5h299q27 0 41 -7.5t35 -31.5 l184 -224q10 -10 10 -26q0 -33 -33 -33h-211q-26 0 -42.5 7t-36.5 24l-275 225q-10 10 -10 25zM555 551h365l-183 522z" />
<glyph unicode="&#xc1;" horiz-adv-x="1474" d="M16 43q0 12 2 18l478 1313q20 59 82 60h319q61 0 82 -60l477 -1313q2 -6 2 -18q0 -16 -13 -29.5t-30 -13.5h-266q-49 0 -70 45l-73 199h-537l-74 -199q-20 -45 -69 -45h-267q-16 0 -29.5 13.5t-13.5 29.5zM555 551h365l-183 522zM569 1569q0 16 11 26l182 224 q20 25 35.5 32t40.5 7h299q18 0 28.5 -11.5t10.5 -29.5q0 -14 -11 -25l-274 -225q-20 -16 -36.5 -23.5t-41.5 -7.5h-211q-33 0 -33 33z" />
<glyph unicode="&#xc2;" horiz-adv-x="1474" d="M16 43q0 12 2 18l478 1313q20 59 82 60h319q61 0 82 -60l477 -1313q2 -6 2 -18q0 -16 -13 -29.5t-30 -13.5h-266q-49 0 -70 45l-73 199h-537l-74 -199q-20 -45 -69 -45h-267q-16 0 -29.5 13.5t-13.5 29.5zM346 1565q0 18 14 32l213 224q20 20 35.5 28.5t36.5 8.5h184 q20 0 35.5 -8.5t36.5 -28.5l213 -224q14 -14 14 -32q0 -29 -31 -29h-108q-45 0 -72 14l-180 99l-180 -99q-27 -14 -72 -14h-108q-31 0 -31 29zM555 551h365l-183 522z" />
<glyph unicode="&#xc3;" horiz-adv-x="1474" d="M16 43q0 12 2 18l478 1313q20 59 82 60h319q61 0 82 -60l477 -1313q2 -6 2 -18q0 -16 -13 -29.5t-30 -13.5h-266q-49 0 -70 45l-73 199h-537l-74 -199q-20 -45 -69 -45h-267q-16 0 -29.5 13.5t-13.5 29.5zM375 1571q0 53 23.5 115.5t76.5 107.5t135 45q43 0 74 -11 t67 -32q20 -10 43 -19.5t43 -9.5t32 8.5t24 24.5q10 14 18 21.5t23 7.5h129q16 0 26.5 -10.5t10.5 -26.5q0 -51 -25 -113.5t-78 -107.5t-135 -45q-41 0 -69.5 10t-69.5 31q-27 16 -46.5 23t-41.5 7q-20 0 -31.5 -8t-24.5 -24q-10 -14 -18 -21.5t-23 -7.5h-126 q-14 0 -25.5 10t-11.5 25zM555 551h365l-183 522z" />
<glyph unicode="&#xc4;" horiz-adv-x="1474" d="M16 43q0 12 2 18l478 1313q20 59 82 60h319q61 0 82 -60l477 -1313q2 -6 2 -18q0 -16 -13 -29.5t-30 -13.5h-266q-49 0 -70 45l-73 199h-537l-74 -199q-20 -45 -69 -45h-267q-16 0 -29.5 13.5t-13.5 29.5zM346 1583v195q0 20 12.5 33.5t32.5 13.5h197q20 0 33.5 -13.5 t13.5 -33.5v-195q0 -20 -13.5 -33.5t-33.5 -13.5h-197q-20 0 -32.5 13.5t-12.5 33.5zM555 551h365l-183 522zM837 1583v195q0 20 13.5 33.5t34.5 13.5h194q20 0 33.5 -13.5t13.5 -33.5v-195q0 -20 -13 -33.5t-34 -13.5h-194q-21 0 -34.5 13.5t-13.5 33.5z" />
<glyph unicode="&#xc5;" horiz-adv-x="1474" d="M16 43q0 12 2 18l478 1313q20 59 82 60h319q61 0 82 -60l477 -1313q2 -6 2 -18q0 -16 -13 -29.5t-30 -13.5h-266q-49 0 -70 45l-73 199h-537l-74 -199q-20 -45 -69 -45h-267q-16 0 -29.5 13.5t-13.5 29.5zM546 1696q0 78 55.5 130t135.5 52t135 -52t55 -130t-55 -129 t-135 -51t-135.5 51t-55.5 129zM555 551h365l-183 522zM675 1696q0 -27 17.5 -44.5t44.5 -17.5q26 0 43.5 17.5t17.5 44.5t-17.5 44t-43.5 17q-27 0 -44.5 -17.5t-17.5 -43.5z" />
<glyph unicode="&#xc6;" horiz-adv-x="2000" d="M8 43q0 4 4 20q100 287 212 558.5t343 754.5q8 25 28.5 41.5t51.5 16.5h1196q23 0 38 -15.5t15 -38.5v-202q0 -23 -15 -37.5t-38 -14.5h-606v-260h561q23 0 38 -15t15 -38v-186q0 -23 -15 -38.5t-38 -15.5h-561v-266h623q23 0 38 -15.5t15 -37.5v-203q0 -23 -15.5 -37 t-37.5 -14h-942q-20 0 -36 15.5t-16 35.5v193h-383q-74 -141 -94 -199q-16 -45 -67 -45h-269q-18 0 -31.5 13.5t-13.5 29.5zM575 551h291v571h-45z" />
<glyph unicode="&#xc7;" horiz-adv-x="1445" d="M94 715q0 127 2 184q10 266 179 410.5t458 144.5q182 0 326.5 -59.5t228.5 -172t88 -266.5q0 -18 -13 -30.5t-32 -12.5h-291q-29 0 -42 11.5t-23 42.5q-29 100 -87.5 140t-154.5 40q-231 0 -239 -258q-2 -55 -2 -170t2 -174q8 -258 239 -258q94 0 154.5 41t87.5 139 q8 31 22.5 42t42.5 11h291q18 0 31.5 -12t13.5 -31q-4 -154 -88 -266.5t-228.5 -171.5t-326.5 -59l-39 -80q14 6 32.5 9t33.5 3q74 0 119 -50t45 -130t-54.5 -131.5t-146.5 -51.5q-66 0 -118 28t-52 56q0 12 10 21l37 33q10 10 23 10q8 0 36.5 -13.5t63.5 -13.5 q31 0 49.5 17.5t18.5 44.5q0 25 -18.5 41t-49.5 16q-16 0 -44 -7t-40 -7q-18 0 -31 12l-39 41q-12 12 -12 27q0 14 12 39l41 94q-240 29 -373 167t-141 380q-2 55 -2 180z" />
<glyph unicode="&#xc8;" horiz-adv-x="1314" d="M139 51v1329q0 23 14.5 38.5t36.5 15.5h967q23 0 38 -15.5t15 -38.5v-202q0 -23 -15 -37.5t-38 -14.5h-647v-260h602q23 0 38 -15t15 -38v-186q0 -23 -15 -38.5t-38 -15.5h-602v-266h664q23 0 38 -15.5t15 -37.5v-203q0 -23 -15.5 -37t-37.5 -14h-984q-20 0 -35.5 15.5 t-15.5 35.5zM221 1817q0 18 10 29.5t29 11.5h299q27 0 41 -7.5t35 -31.5l184 -224q10 -10 10 -26q0 -33 -33 -33h-211q-26 0 -42.5 7t-36.5 24l-275 225q-10 10 -10 25z" />
<glyph unicode="&#xc9;" horiz-adv-x="1314" d="M139 51v1329q0 23 14.5 38.5t36.5 15.5h967q23 0 38 -15.5t15 -38.5v-202q0 -23 -15 -37.5t-38 -14.5h-647v-260h602q23 0 38 -15t15 -38v-186q0 -23 -15 -38.5t-38 -15.5h-602v-266h664q23 0 38 -15.5t15 -37.5v-203q0 -23 -15.5 -37t-37.5 -14h-984q-20 0 -35.5 15.5 t-15.5 35.5zM489 1569q0 16 11 26l182 224q20 25 35.5 32t40.5 7h299q18 0 28.5 -11.5t10.5 -29.5q0 -14 -11 -25l-274 -225q-20 -16 -36.5 -23.5t-41.5 -7.5h-211q-33 0 -33 33z" />
<glyph unicode="&#xca;" horiz-adv-x="1314" d="M139 51v1329q0 23 14.5 38.5t36.5 15.5h967q23 0 38 -15.5t15 -38.5v-202q0 -23 -15 -37.5t-38 -14.5h-647v-260h602q23 0 38 -15t15 -38v-186q0 -23 -15 -38.5t-38 -15.5h-602v-266h664q23 0 38 -15.5t15 -37.5v-203q0 -23 -15.5 -37t-37.5 -14h-984q-20 0 -35.5 15.5 t-15.5 35.5zM266 1565q0 18 14 32l213 224q20 20 35.5 28.5t36.5 8.5h184q20 0 35.5 -8.5t36.5 -28.5l213 -224q14 -14 14 -32q0 -29 -31 -29h-108q-45 0 -72 14l-180 99l-180 -99q-27 -14 -72 -14h-108q-31 0 -31 29z" />
<glyph unicode="&#xcb;" horiz-adv-x="1314" d="M139 51v1329q0 23 14.5 38.5t36.5 15.5h967q23 0 38 -15.5t15 -38.5v-202q0 -23 -15 -37.5t-38 -14.5h-647v-260h602q23 0 38 -15t15 -38v-186q0 -23 -15 -38.5t-38 -15.5h-602v-266h664q23 0 38 -15.5t15 -37.5v-203q0 -23 -15.5 -37t-37.5 -14h-984q-20 0 -35.5 15.5 t-15.5 35.5zM266 1583v195q0 20 12.5 33.5t32.5 13.5h197q20 0 33.5 -13.5t13.5 -33.5v-195q0 -20 -13.5 -33.5t-33.5 -13.5h-197q-20 0 -32.5 13.5t-12.5 33.5zM757 1583v195q0 20 13.5 33.5t34.5 13.5h194q20 0 33.5 -13.5t13.5 -33.5v-195q0 -20 -13 -33.5t-34 -13.5 h-194q-21 0 -34.5 13.5t-13.5 33.5z" />
<glyph unicode="&#xcc;" horiz-adv-x="673" d="M-98 1817q0 18 10 29.5t29 11.5h299q27 0 41 -7.5t35 -31.5l184 -224q10 -10 10 -26q0 -33 -33 -33h-211q-26 0 -42.5 7t-36.5 24l-275 225q-10 10 -10 25zM139 51v1331q0 23 15.5 37.5t35.5 14.5h293q23 0 37.5 -14.5t14.5 -37.5v-1331q0 -20 -14.5 -35.5t-37.5 -15.5 h-293q-20 0 -35.5 15.5t-15.5 35.5z" />
<glyph unicode="&#xcd;" horiz-adv-x="673" d="M139 51v1331q0 23 15.5 37.5t35.5 14.5h293q23 0 37.5 -14.5t14.5 -37.5v-1331q0 -20 -14.5 -35.5t-37.5 -15.5h-293q-20 0 -35.5 15.5t-15.5 35.5zM170 1569q0 16 11 26l182 224q20 25 35.5 32t40.5 7h299q18 0 28.5 -11.5t10.5 -29.5q0 -14 -11 -25l-274 -225 q-20 -16 -36.5 -23.5t-41.5 -7.5h-211q-33 0 -33 33z" />
<glyph unicode="&#xce;" horiz-adv-x="673" d="M-53 1565q0 18 14 32l213 224q20 20 35.5 28.5t36.5 8.5h184q20 0 35.5 -8.5t36.5 -28.5l213 -224q14 -14 14 -32q0 -29 -31 -29h-108q-45 0 -72 14l-180 99l-180 -99q-27 -14 -72 -14h-108q-31 0 -31 29zM139 51v1331q0 23 15.5 37.5t35.5 14.5h293q23 0 37.5 -14.5 t14.5 -37.5v-1331q0 -20 -14.5 -35.5t-37.5 -15.5h-293q-20 0 -35.5 15.5t-15.5 35.5z" />
<glyph unicode="&#xcf;" horiz-adv-x="673" d="M-53 1583v195q0 20 12.5 33.5t32.5 13.5h197q20 0 33.5 -13.5t13.5 -33.5v-195q0 -20 -13.5 -33.5t-33.5 -13.5h-197q-20 0 -32.5 13.5t-12.5 33.5zM139 51v1331q0 23 15.5 37.5t35.5 14.5h293q23 0 37.5 -14.5t14.5 -37.5v-1331q0 -20 -14.5 -35.5t-37.5 -15.5h-293 q-20 0 -35.5 15.5t-15.5 35.5zM438 1583v195q0 20 13.5 33.5t34.5 13.5h194q20 0 33.5 -13.5t13.5 -33.5v-195q0 -20 -13 -33.5t-34 -13.5h-194q-21 0 -34.5 13.5t-13.5 33.5z" />
<glyph unicode="&#xd0;" horiz-adv-x="1511" d="M29 645v150q0 23 15 37t38 14h94v534q0 23 14.5 38.5t36.5 15.5h539q303 0 474 -144.5t173 -415.5q2 -55 2 -155q0 -102 -2 -158q-2 -283 -168 -422t-473 -139h-545q-20 0 -35.5 15.5t-15.5 35.5v543h-94q-23 0 -38 14.5t-15 36.5zM561 307h205q129 0 188.5 61.5 t61.5 196.5v305q-2 131 -63.5 193.5t-188.5 62.5h-203v-280h178q23 0 37.5 -14.5t14.5 -36.5v-150q0 -20 -14.5 -35.5t-37.5 -15.5h-178v-287z" />
<glyph unicode="&#xd1;" horiz-adv-x="1476" d="M139 51v1329q0 23 14.5 38.5t36.5 15.5h232q47 0 70 -39l483 -764v749q0 23 14.5 38.5t36.5 15.5h260q23 0 37 -15.5t14 -38.5v-1327q0 -23 -14 -38t-37 -15h-231q-47 0 -70 39l-481 733v-721q0 -23 -15.5 -37t-37.5 -14h-261q-20 0 -35.5 15.5t-15.5 35.5zM377 1571 q0 53 23.5 115.5t76.5 107.5t135 45q43 0 74 -11t67 -32q20 -10 43 -19.5t43 -9.5t32 8.5t24 24.5q10 14 18 21.5t23 7.5h129q16 0 26.5 -10.5t10.5 -26.5q0 -51 -25 -113.5t-78 -107.5t-135 -45q-41 0 -69.5 10t-69.5 31q-27 16 -46.5 23t-41.5 7q-20 0 -31.5 -8t-24.5 -24 q-10 -14 -18 -21.5t-23 -7.5h-126q-14 0 -25.5 10t-11.5 25z" />
<glyph unicode="&#xd2;" horiz-adv-x="1464" d="M94 713q0 119 2 178q8 270 179 416.5t458 146.5q285 0 456 -146.5t179 -416.5q4 -119 4 -178q0 -61 -4 -176q-10 -274 -177 -415.5t-458 -141.5t-459 141t-178 416q-2 57 -2 176zM297 1817q0 18 10 29.5t29 11.5h299q27 0 41 -7.5t35 -31.5l184 -224q10 -10 10 -26 q0 -33 -33 -33h-211q-26 0 -42.5 7t-36.5 24l-275 225q-10 10 -10 25zM492 719q0 -111 2 -170q4 -133 67.5 -197.5t171.5 -64.5q107 0 170.5 64.5t67.5 197.5q4 119 4 170t-4 166q-4 133 -67.5 197.5t-170.5 64.5q-109 0 -172 -64.5t-67 -197.5q-2 -57 -2 -166z" />
<glyph unicode="&#xd3;" horiz-adv-x="1464" d="M94 713q0 119 2 178q8 270 179 416.5t458 146.5q285 0 456 -146.5t179 -416.5q4 -119 4 -178q0 -61 -4 -176q-10 -274 -177 -415.5t-458 -141.5t-459 141t-178 416q-2 57 -2 176zM492 719q0 -111 2 -170q4 -133 67.5 -197.5t171.5 -64.5q107 0 170.5 64.5t67.5 197.5 q4 119 4 170t-4 166q-4 133 -67.5 197.5t-170.5 64.5q-109 0 -172 -64.5t-67 -197.5q-2 -57 -2 -166zM565 1569q0 16 11 26l182 224q20 25 35.5 32t40.5 7h299q18 0 28.5 -11.5t10.5 -29.5q0 -14 -11 -25l-274 -225q-20 -16 -36.5 -23.5t-41.5 -7.5h-211q-33 0 -33 33z" />
<glyph unicode="&#xd4;" horiz-adv-x="1464" d="M94 713q0 119 2 178q8 270 179 416.5t458 146.5q285 0 456 -146.5t179 -416.5q4 -119 4 -178q0 -61 -4 -176q-10 -274 -177 -415.5t-458 -141.5t-459 141t-178 416q-2 57 -2 176zM342 1565q0 18 14 32l213 224q20 20 35.5 28.5t36.5 8.5h184q20 0 35.5 -8.5t36.5 -28.5 l213 -224q14 -14 14 -32q0 -29 -31 -29h-108q-45 0 -72 14l-180 99l-180 -99q-27 -14 -72 -14h-108q-31 0 -31 29zM492 719q0 -111 2 -170q4 -133 67.5 -197.5t171.5 -64.5q107 0 170.5 64.5t67.5 197.5q4 119 4 170t-4 166q-4 133 -67.5 197.5t-170.5 64.5 q-109 0 -172 -64.5t-67 -197.5q-2 -57 -2 -166z" />
<glyph unicode="&#xd5;" horiz-adv-x="1464" d="M94 713q0 119 2 178q8 270 179 416.5t458 146.5q285 0 456 -146.5t179 -416.5q4 -119 4 -178q0 -61 -4 -176q-10 -274 -177 -415.5t-458 -141.5t-459 141t-178 416q-2 57 -2 176zM371 1571q0 53 23.5 115.5t76.5 107.5t135 45q43 0 74 -11t67 -32q20 -10 43 -19.5 t43 -9.5t32 8.5t24 24.5q10 14 18 21.5t23 7.5h129q16 0 26.5 -10.5t10.5 -26.5q0 -51 -25 -113.5t-78 -107.5t-135 -45q-41 0 -69.5 10t-69.5 31q-27 16 -46.5 23t-41.5 7q-20 0 -31.5 -8t-24.5 -24q-10 -14 -18 -21.5t-23 -7.5h-126q-14 0 -25.5 10t-11.5 25zM492 719 q0 -111 2 -170q4 -133 67.5 -197.5t171.5 -64.5q107 0 170.5 64.5t67.5 197.5q4 119 4 170t-4 166q-4 133 -67.5 197.5t-170.5 64.5q-109 0 -172 -64.5t-67 -197.5q-2 -57 -2 -166z" />
<glyph unicode="&#xd6;" horiz-adv-x="1464" d="M94 713q0 119 2 178q8 270 179 416.5t458 146.5q285 0 456 -146.5t179 -416.5q4 -119 4 -178q0 -61 -4 -176q-10 -274 -177 -415.5t-458 -141.5t-459 141t-178 416q-2 57 -2 176zM342 1583v195q0 20 12.5 33.5t32.5 13.5h197q20 0 33.5 -13.5t13.5 -33.5v-195 q0 -20 -13.5 -33.5t-33.5 -13.5h-197q-20 0 -32.5 13.5t-12.5 33.5zM492 719q0 -111 2 -170q4 -133 67.5 -197.5t171.5 -64.5q107 0 170.5 64.5t67.5 197.5q4 119 4 170t-4 166q-4 133 -67.5 197.5t-170.5 64.5q-109 0 -172 -64.5t-67 -197.5q-2 -57 -2 -166zM833 1583v195 q0 20 13.5 33.5t34.5 13.5h194q20 0 33.5 -13.5t13.5 -33.5v-195q0 -20 -13 -33.5t-34 -13.5h-194q-21 0 -34.5 13.5t-13.5 33.5z" />
<glyph unicode="&#xd7;" horiz-adv-x="1241" d="M92 375q0 23 14 37l271 270l-271 270q-14 14 -14 37q0 20 14 35l173 172q16 16 36 16t37 -16l269 -270l270 270q14 14 37 14q20 0 35 -14l172 -172q16 -16 16 -37q0 -20 -16 -37l-269 -268l269 -268q16 -16 16 -37q0 -20 -16 -37l-172 -172q-14 -14 -35 -14q-23 0 -37 14 l-270 268l-269 -270q-18 -14 -37 -14q-18 0 -36 14l-173 172q-14 16 -14 37z" />
<glyph unicode="&#xd8;" horiz-adv-x="1529" d="M25 369v161q0 27 10 39.5t35 22.5l61 24l-2 115q0 53 4 160q10 270 180 416.5t457 146.5q221 0 374.5 -92t215.5 -266l84 32q16 6 22 7q18 0 30.5 -11.5t12.5 -29.5v-160q0 -27 -10 -39t-35 -23l-57 -22q2 -45 2 -135q0 -121 -2 -178q-10 -274 -178 -415.5t-459 -141.5 q-240 0 -394.5 96t-209.5 286l-76 -28q-16 -6 -24 -6q-18 0 -29.5 11t-11.5 30zM528 772l469 182q-18 98 -77.5 145.5t-149.5 47.5q-106 0 -169.5 -64.5t-68.5 -197.5q-4 -41 -4 -113zM535 508q14 -113 74.5 -167t160.5 -54q107 0 170.5 64.5t67.5 197.5q4 100 2 145z" />
<glyph unicode="&#xd9;" horiz-adv-x="1490" d="M127 545v835q0 23 14.5 38.5t36.5 15.5h281q23 0 38 -15.5t15 -38.5v-831q0 -127 60.5 -190.5t172.5 -63.5q113 0 173.5 64.5t60.5 189.5v831q0 23 15.5 38.5t37.5 15.5h279q23 0 38 -15.5t15 -38.5v-835q0 -283 -164 -424t-452 -141q-291 0 -456 141t-165 424zM309 1817 q0 18 10 29.5t29 11.5h299q27 0 41 -7.5t35 -31.5l184 -224q10 -10 10 -26q0 -33 -33 -33h-211q-26 0 -42.5 7t-36.5 24l-275 225q-10 10 -10 25z" />
<glyph unicode="&#xda;" horiz-adv-x="1490" d="M127 545v835q0 23 14.5 38.5t36.5 15.5h281q23 0 38 -15.5t15 -38.5v-831q0 -127 60.5 -190.5t172.5 -63.5q113 0 173.5 64.5t60.5 189.5v831q0 23 15.5 38.5t37.5 15.5h279q23 0 38 -15.5t15 -38.5v-835q0 -283 -164 -424t-452 -141q-291 0 -456 141t-165 424zM577 1569 q0 16 11 26l182 224q20 25 35.5 32t40.5 7h299q18 0 28.5 -11.5t10.5 -29.5q0 -14 -11 -25l-274 -225q-20 -16 -36.5 -23.5t-41.5 -7.5h-211q-33 0 -33 33z" />
<glyph unicode="&#xdb;" horiz-adv-x="1490" d="M127 545v835q0 23 14.5 38.5t36.5 15.5h281q23 0 38 -15.5t15 -38.5v-831q0 -127 60.5 -190.5t172.5 -63.5q113 0 173.5 64.5t60.5 189.5v831q0 23 15.5 38.5t37.5 15.5h279q23 0 38 -15.5t15 -38.5v-835q0 -283 -164 -424t-452 -141q-291 0 -456 141t-165 424zM355 1565 q0 18 14 32l213 224q20 20 35.5 28.5t36.5 8.5h184q20 0 35.5 -8.5t36.5 -28.5l213 -224q14 -14 14 -32q0 -29 -31 -29h-108q-45 0 -72 14l-180 99l-180 -99q-27 -14 -72 -14h-108q-31 0 -31 29z" />
<glyph unicode="&#xdc;" horiz-adv-x="1490" d="M127 545v835q0 23 14.5 38.5t36.5 15.5h281q23 0 38 -15.5t15 -38.5v-831q0 -127 60.5 -190.5t172.5 -63.5q113 0 173.5 64.5t60.5 189.5v831q0 23 15.5 38.5t37.5 15.5h279q23 0 38 -15.5t15 -38.5v-835q0 -283 -164 -424t-452 -141q-291 0 -456 141t-165 424zM354 1583 v195q0 20 12.5 33.5t32.5 13.5h197q20 0 33.5 -13.5t13.5 -33.5v-195q0 -20 -13.5 -33.5t-33.5 -13.5h-197q-20 0 -32.5 13.5t-12.5 33.5zM845 1583v195q0 20 13.5 33.5t34.5 13.5h194q20 0 33.5 -13.5t13.5 -33.5v-195q0 -20 -13 -33.5t-34 -13.5h-194q-21 0 -34.5 13.5 t-13.5 33.5z" />
<glyph unicode="&#xdd;" horiz-adv-x="1400" d="M29 1391q0 16 13 29.5t30 13.5h270q29 0 47.5 -14.5t26.5 -30.5l284 -515l285 515q8 16 26.5 30.5t47.5 14.5h270q16 0 29.5 -13.5t13.5 -29.5q0 -12 -6 -23l-473 -881v-436q0 -23 -15.5 -37t-37.5 -14h-281q-20 0 -35.5 15.5t-15.5 35.5v436l-473 881q-6 10 -6 23z M532 1569q0 16 11 26l182 224q20 25 35.5 32t40.5 7h299q18 0 28.5 -11.5t10.5 -29.5q0 -14 -11 -25l-274 -225q-20 -16 -36.5 -23.5t-41.5 -7.5h-211q-33 0 -33 33z" />
<glyph unicode="&#xde;" horiz-adv-x="1394" d="M139 51v1331q0 23 15.5 37.5t35.5 14.5h295q23 0 37.5 -14.5t14.5 -37.5v-182h227q270 0 422.5 -121t152.5 -354t-152.5 -349t-422.5 -116h-227v-209q0 -20 -14.5 -35.5t-37.5 -15.5h-295q-20 0 -35.5 15.5t-15.5 35.5zM530 553h230q84 0 132 44t48 130q0 80 -44 129 t-136 49h-230v-352z" />
<glyph unicode="&#xdf;" horiz-adv-x="1318" d="M117 51v910q0 217 135 354t405 139q180 0 299 -57.5t174.5 -149.5t55.5 -200q0 -180 -142 -277q203 -84 203 -338q0 -106 -58.5 -205.5t-177 -163t-294.5 -63.5h-99q-29 0 -45 14.5t-16 36.5v166q0 23 16.5 38t44.5 13h48q92 0 147 50.5t55 130.5t-54 129t-155 49h-47 q-27 0 -41 14t-14 39v143q0 51 55 51h41q88 2 138.5 42t50.5 112q0 68 -50.5 112t-134.5 44q-86 0 -134 -53.5t-48 -163.5v-916q0 -20 -14.5 -35.5t-36.5 -15.5h-254q-23 0 -38 14.5t-15 36.5z" />
<glyph unicode="&#xe0;" d="M51 299q0 139 116 226t318 120l254 39v25q0 76 -30.5 110.5t-104.5 34.5q-41 0 -68.5 -14.5t-62.5 -42.5q-27 -23 -47 -33q-8 -14 -20 -14h-238q-20 0 -33.5 13t-11.5 32q2 55 55 123.5t162 117.5t268 49q254 0 377 -111.5t123 -301.5v-621q0 -20 -14.5 -35.5 t-36.5 -15.5h-252q-20 0 -35.5 15.5t-15.5 35.5v72q-45 -63 -125 -103t-191 -40q-108 0 -197 41.5t-139.5 115.5t-50.5 162zM172 1499q0 18 10 29.5t29 11.5h280q27 0 41.5 -7t34.5 -32l184 -223q10 -10 11 -27q0 -33 -33 -32h-195q-24 0 -40.5 7t-36.5 23l-275 226 q-10 10 -10 24zM401 326q0 -47 40 -76t100 -29q90 0 146 59.5t56 172.5v24l-170 -28q-172 -33 -172 -123z" />
<glyph unicode="&#xe1;" d="M51 299q0 139 116 226t318 120l254 39v25q0 76 -30.5 110.5t-104.5 34.5q-41 0 -68.5 -14.5t-62.5 -42.5q-27 -23 -47 -33q-8 -14 -20 -14h-238q-20 0 -33.5 13t-11.5 32q2 55 55 123.5t162 117.5t268 49q254 0 377 -111.5t123 -301.5v-621q0 -20 -14.5 -35.5 t-36.5 -15.5h-252q-20 0 -35.5 15.5t-15.5 35.5v72q-45 -63 -125 -103t-191 -40q-108 0 -197 41.5t-139.5 115.5t-50.5 162zM401 326q0 -47 40 -76t100 -29q90 0 146 59.5t56 172.5v24l-170 -28q-172 -33 -172 -123zM439 1251q0 16 10 27l182 223q20 25 35.5 32t40.5 7h283 q18 0 28.5 -11t10.5 -30q0 -14 -11 -24l-274 -226q-20 -16 -36.5 -23t-43.5 -7h-192q-33 -1 -33 32z" />
<glyph unicode="&#xe2;" d="M51 299q0 139 116 226t318 120l254 39v25q0 76 -30.5 110.5t-104.5 34.5q-41 0 -68.5 -14.5t-62.5 -42.5q-27 -23 -47 -33q-8 -14 -20 -14h-238q-20 0 -33.5 13t-11.5 32q2 55 55 123.5t162 117.5t268 49q254 0 377 -111.5t123 -301.5v-621q0 -20 -14.5 -35.5 t-36.5 -15.5h-252q-20 0 -35.5 15.5t-15.5 35.5v72q-45 -63 -125 -103t-191 -40q-108 0 -197 41.5t-139.5 115.5t-50.5 162zM215 1247q0 18 14 33l213 223q20 20 35.5 28.5t36.5 8.5h170q23 0 38 -7t35 -30l211 -223q16 -16 17 -33q0 -29 -33 -28h-100q-45 0 -72 14l-180 98 l-180 -98q-27 -14 -72 -14h-103q-30 -1 -30 28zM401 326q0 -47 40 -76t100 -29q90 0 146 59.5t56 172.5v24l-170 -28q-172 -33 -172 -123z" />
<glyph unicode="&#xe3;" d="M51 299q0 139 116 226t318 120l254 39v25q0 76 -30.5 110.5t-104.5 34.5q-41 0 -68.5 -14.5t-62.5 -42.5q-27 -23 -47 -33q-8 -14 -20 -14h-238q-20 0 -33.5 13t-11.5 32q2 55 55 123.5t162 117.5t268 49q254 0 377 -111.5t123 -301.5v-621q0 -20 -14.5 -35.5 t-36.5 -15.5h-252q-20 0 -35.5 15.5t-15.5 35.5v72q-45 -63 -125 -103t-191 -40q-108 0 -197 41.5t-139.5 115.5t-50.5 162zM242 1253q0 53 23.5 115t75.5 106t134 44q41 0 70 -10.5t67 -30.5q29 -16 46.5 -23.5t39.5 -7.5q20 0 31.5 8t24.5 27q10 14 18 21t23 7h129 q16 0 26.5 -11t10.5 -25q0 -53 -25 -115t-77 -106t-134 -44q-41 0 -67.5 10.5t-69.5 30.5q-49 31 -86 31q-20 0 -31.5 -8t-23.5 -25q-10 -14 -18.5 -21t-22.5 -7h-127q-14 0 -25.5 10t-11.5 24zM401 326q0 -47 40 -76t100 -29q90 0 146 59.5t56 172.5v24l-170 -28 q-172 -33 -172 -123z" />
<glyph unicode="&#xe4;" d="M51 299q0 139 116 226t318 120l254 39v25q0 76 -30.5 110.5t-104.5 34.5q-41 0 -68.5 -14.5t-62.5 -42.5q-27 -23 -47 -33q-8 -14 -20 -14h-238q-20 0 -33.5 13t-11.5 32q2 55 55 123.5t162 117.5t268 49q254 0 377 -111.5t123 -301.5v-621q0 -20 -14.5 -35.5 t-36.5 -15.5h-252q-20 0 -35.5 15.5t-15.5 35.5v72q-45 -63 -125 -103t-191 -40q-108 0 -197 41.5t-139.5 115.5t-50.5 162zM244 1286v197q0 20 12 33.5t33 13.5h196q20 0 34 -13.5t14 -33.5v-197q0 -20 -13.5 -32.5t-34.5 -12.5h-196q-21 0 -33 12.5t-12 32.5zM401 326 q0 -47 40 -76t100 -29q90 0 146 59.5t56 172.5v24l-170 -28q-172 -33 -172 -123zM674 1286v197q0 20 13 33.5t34 13.5h194q20 0 34 -13.5t14 -33.5v-197q0 -20 -13.5 -32.5t-34.5 -12.5h-194q-21 0 -34 12.5t-13 32.5z" />
<glyph unicode="&#xe5;" d="M51 299q0 139 116 226t318 120l254 39v25q0 76 -30.5 110.5t-104.5 34.5q-41 0 -68.5 -14.5t-62.5 -42.5q-27 -23 -47 -33q-8 -14 -20 -14h-238q-20 0 -33.5 13t-11.5 32q2 55 55 123.5t162 117.5t268 49q254 0 377 -111.5t123 -301.5v-621q0 -20 -14.5 -35.5 t-36.5 -15.5h-252q-20 0 -35.5 15.5t-15.5 35.5v72q-45 -63 -125 -103t-191 -40q-108 0 -197 41.5t-139.5 115.5t-50.5 162zM401 326q0 -47 40 -76t100 -29q90 0 146 59.5t56 172.5v24l-170 -28q-172 -33 -172 -123zM410 1389q0 78 55 130t135 52t135.5 -52.5t55.5 -129.5 q0 -78 -55.5 -129.5t-135.5 -51.5t-135 51.5t-55 129.5zM539 1389q0 -27 17.5 -44.5t43.5 -17.5q27 0 44.5 17.5t17.5 44.5t-17.5 44t-44.5 17t-44 -17.5t-17 -43.5z" />
<glyph unicode="&#xe6;" horiz-adv-x="1878" d="M53 299q0 139 115 227t319 121l252 39v25q0 74 -29.5 108.5t-103.5 34.5q-43 0 -70.5 -14.5t-62.5 -42.5q-27 -23 -47 -33q-8 -14 -20 -14h-238q-20 0 -32.5 13t-12.5 32q0 55 53 123.5t163 117.5t269 49q231 0 336 -110q133 111 328 110q186 0 307 -77.5t175 -201.5 t54 -267v-52q0 -23 -15 -38t-38 -15h-643v-12q2 -102 45 -153.5t113 -51.5q80 0 135 70q16 20 28.5 25t36.5 5h267q18 0 30.5 -12t12.5 -31q0 -51 -59.5 -121.5t-174 -121.5t-274.5 -51q-129 0 -229.5 40.5t-165.5 116.5q-143 -158 -410 -157q-125 0 -219 41.5t-144.5 114.5 t-50.5 163zM401 326q0 -47 40 -76t100 -29q92 0 147 58.5t55 173.5v24l-168 -28q-174 -33 -174 -123zM1112 643h320v8q0 96 -41 149.5t-119 53.5q-70 0 -114 -51t-46 -152v-8z" />
<glyph unicode="&#xe7;" d="M78 530l2 84q8 221 153.5 346t378.5 125q178 0 299 -63.5t180.5 -150.5t63.5 -158q2 -23 -14.5 -38.5t-38.5 -15.5h-275q-23 0 -35 10.5t-22 32.5q-23 57 -58.5 84t-90.5 27q-158 0 -164 -209l-2 -78l2 -67q2 -106 43 -156.5t121 -50.5q59 0 93 25.5t56 84.5 q10 23 22.5 33.5t34.5 10.5h275q20 0 36.5 -14.5t16.5 -35.5q0 -63 -56.5 -151t-176 -155.5t-299.5 -69.5l-41 -80q14 6 33.5 9t33.5 3q74 0 118 -50t44 -130t-53 -131.5t-146 -51.5q-65 0 -118.5 28t-53.5 56q0 10 11 21l38 33q10 10 23 10q8 0 37 -13.5t63 -13.5 q31 0 49.5 17.5t18.5 44.5q0 25 -18.5 41t-49.5 16q-18 0 -45.5 -7t-38.5 -7q-18 0 -30 12l-39 41q-12 12 -13 25q0 16 13 41l41 94q-186 29 -299 148.5t-121 312.5z" />
<glyph unicode="&#xe8;" horiz-adv-x="1222" d="M76 504v63q8 244 151.5 381t386.5 137q176 0 298 -70.5t182.5 -194.5t60.5 -281v-52q0 -23 -15.5 -38t-37.5 -15h-649v-12q2 -92 43 -148.5t116 -56.5q49 0 79 19.5t57 50.5q18 20 29 25t36 5h268q18 0 31.5 -11t13.5 -27q0 -53 -60 -125t-176 -123t-274 -51 q-249 0 -392.5 134t-147.5 390zM187 1499q0 18 10 29.5t29 11.5h280q27 0 41.5 -7t34.5 -32l184 -223q10 -10 11 -27q0 -33 -33 -32h-195q-24 0 -40.5 7t-36.5 23l-275 226q-10 10 -10 24zM453 643h325v4q0 98 -43 152.5t-121 54.5t-119.5 -54.5t-41.5 -152.5v-4z" />
<glyph unicode="&#xe9;" horiz-adv-x="1222" d="M76 504v63q8 244 151.5 381t386.5 137q176 0 298 -70.5t182.5 -194.5t60.5 -281v-52q0 -23 -15.5 -38t-37.5 -15h-649v-12q2 -92 43 -148.5t116 -56.5q49 0 79 19.5t57 50.5q18 20 29 25t36 5h268q18 0 31.5 -11t13.5 -27q0 -53 -60 -125t-176 -123t-274 -51 q-249 0 -392.5 134t-147.5 390zM453 643h325v4q0 98 -43 152.5t-121 54.5t-119.5 -54.5t-41.5 -152.5v-4zM461 1251q0 16 10 27l182 223q20 25 35.5 32t40.5 7h283q18 0 28.5 -11t10.5 -30q0 -14 -11 -24l-274 -226q-20 -16 -36.5 -23t-43.5 -7h-192q-33 -1 -33 32z" />
<glyph unicode="&#xea;" horiz-adv-x="1222" d="M76 504v63q8 244 151.5 381t386.5 137q176 0 298 -70.5t182.5 -194.5t60.5 -281v-52q0 -23 -15.5 -38t-37.5 -15h-649v-12q2 -92 43 -148.5t116 -56.5q49 0 79 19.5t57 50.5q18 20 29 25t36 5h268q18 0 31.5 -11t13.5 -27q0 -53 -60 -125t-176 -123t-274 -51 q-249 0 -392.5 134t-147.5 390zM230 1247q0 18 14 33l213 223q20 20 35.5 28.5t36.5 8.5h170q23 0 38 -7t35 -30l211 -223q16 -16 17 -33q0 -29 -33 -28h-100q-45 0 -72 14l-180 98l-180 -98q-27 -14 -72 -14h-103q-30 -1 -30 28zM453 643h325v4q0 98 -43 152.5t-121 54.5 t-119.5 -54.5t-41.5 -152.5v-4z" />
<glyph unicode="&#xeb;" horiz-adv-x="1222" d="M76 504v63q8 244 151.5 381t386.5 137q176 0 298 -70.5t182.5 -194.5t60.5 -281v-52q0 -23 -15.5 -38t-37.5 -15h-649v-12q2 -92 43 -148.5t116 -56.5q49 0 79 19.5t57 50.5q18 20 29 25t36 5h268q18 0 31.5 -11t13.5 -27q0 -53 -60 -125t-176 -123t-274 -51 q-249 0 -392.5 134t-147.5 390zM256 1286v197q0 20 12 33.5t33 13.5h196q20 0 34 -13.5t14 -33.5v-197q0 -20 -13.5 -32.5t-34.5 -12.5h-196q-21 0 -33 12.5t-12 32.5zM453 643h325v4q0 98 -43 152.5t-121 54.5t-119.5 -54.5t-41.5 -152.5v-4zM686 1286v197q0 20 13 33.5 t34 13.5h194q20 0 34 -13.5t14 -33.5v-197q0 -20 -13.5 -32.5t-34.5 -12.5h-194q-21 0 -34 12.5t-13 32.5z" />
<glyph unicode="&#xec;" horiz-adv-x="593" d="M-137 1499q0 18 10 29.5t29 11.5h280q27 0 41.5 -7t34.5 -32l184 -223q10 -10 11 -27q0 -33 -33 -32h-195q-24 0 -40.5 7t-36.5 23l-275 226q-10 10 -10 24zM117 51v963q0 23 15 37t36 14h256q23 0 38 -14.5t15 -36.5v-963q0 -23 -15.5 -37t-37.5 -14h-256 q-21 0 -36 15.5t-15 35.5z" />
<glyph unicode="&#xed;" horiz-adv-x="593" d="M117 51v963q0 23 15 37t36 14h256q23 0 38 -14.5t15 -36.5v-963q0 -23 -15.5 -37t-37.5 -14h-256q-21 0 -36 15.5t-15 35.5zM142 1251q0 16 10 27l182 223q20 25 35.5 32t40.5 7h283q18 0 28.5 -11t10.5 -30q0 -14 -11 -24l-274 -226q-20 -16 -36.5 -23t-43.5 -7h-192 q-33 -1 -33 32z" />
<glyph unicode="&#xee;" horiz-adv-x="593" d="M-88 1247q0 18 14 33l213 223q20 20 35.5 28.5t36.5 8.5h170q23 0 38 -7t35 -30l211 -223q16 -16 17 -33q0 -29 -33 -28h-100q-45 0 -72 14l-180 98l-180 -98q-27 -14 -72 -14h-103q-30 -1 -30 28zM117 51v963q0 23 15 37t36 14h256q23 0 38 -14.5t15 -36.5v-963 q0 -23 -15.5 -37t-37.5 -14h-256q-21 0 -36 15.5t-15 35.5z" />
<glyph unicode="&#xef;" horiz-adv-x="593" d="M-63 1286v197q0 20 12 33.5t33 13.5h196q20 0 34 -13.5t14 -33.5v-197q0 -20 -13.5 -32.5t-34.5 -12.5h-196q-21 0 -33 12.5t-12 32.5zM117 51v963q0 23 15 37t36 14h256q23 0 38 -14.5t15 -36.5v-963q0 -23 -15.5 -37t-37.5 -14h-256q-21 0 -36 15.5t-15 35.5zM367 1286 v197q0 20 13 33.5t34 13.5h194q20 0 34 -13.5t14 -33.5v-197q0 -20 -13.5 -32.5t-34.5 -12.5h-194q-21 0 -34 12.5t-13 32.5z" />
<glyph unicode="&#xf0;" horiz-adv-x="1247" d="M72 471q0 154 68.5 265.5t192.5 169t285 57.5q59 0 109 -27q-35 90 -86 158l-225 -88q-16 -6 -25 -7q-18 0 -29.5 11.5t-11.5 29.5v52q0 27 10.5 39t34.5 22l144 55q-63 63 -170 142q-29 20 -29 41q0 18 12.5 30.5t30.5 12.5h270q59 0 99 -27l30 -27q12 -10 28.5 -23.5 t33.5 -29.5l186 72q16 6 23 6q18 0 30.5 -11.5t12.5 -29.5v-51q0 -27 -10.5 -39t-34.5 -23l-99 -39q96 -123 149.5 -282.5t61.5 -378.5q2 -12 2 -43t-2 -45q-8 -229 -151.5 -356t-393.5 -127q-253 0 -399.5 129t-146.5 362zM446 471l3 -39q2 -90 42.5 -142t126.5 -52 q84 0 125 53t43 141q2 14 2 39q0 23 -2 37q-2 90 -41.5 143.5t-126.5 53.5q-88 0 -127.5 -53.5t-41.5 -143.5z" />
<glyph unicode="&#xf1;" horiz-adv-x="1323" d="M117 51v963q0 23 15 37t36 14h252q23 0 37 -14.5t14 -36.5v-78q55 68 142 108.5t200 40.5q117 0 208 -53t143.5 -157.5t52.5 -251.5v-572q0 -20 -14.5 -35.5t-37.5 -15.5h-272q-23 0 -38 14.5t-15 36.5v559q0 92 -44 141.5t-128 49.5q-82 0 -129 -50.5t-47 -140.5v-559 q0 -20 -14.5 -35.5t-37.5 -15.5h-272q-21 0 -36 15.5t-15 35.5zM307 1253q0 53 23.5 115t75.5 106t134 44q41 0 70 -10.5t67 -30.5q29 -16 46.5 -23.5t39.5 -7.5q20 0 31.5 8t24.5 27q10 14 18 21t23 7h129q16 0 26.5 -11t10.5 -25q0 -53 -25 -115t-77 -106t-134 -44 q-41 0 -67.5 10.5t-69.5 30.5q-49 31 -86 31q-20 0 -31.5 -8t-23.5 -25q-10 -14 -18.5 -21t-22.5 -7h-127q-14 0 -25.5 10t-11.5 24z" />
<glyph unicode="&#xf2;" horiz-adv-x="1257" d="M80 532q0 66 2 93q12 217 154.5 338.5t392.5 121.5t392 -121.5t155 -338.5q4 -53 4 -93q0 -39 -4 -92q-12 -221 -150.5 -340.5t-396.5 -119.5t-396.5 119.5t-150.5 340.5q-2 27 -2 92zM199 1499q0 18 10 29.5t29 11.5h280q27 0 41.5 -7t34.5 -32l184 -223q10 -10 11 -27 q0 -33 -33 -32h-195q-24 0 -40.5 7t-36.5 23l-275 226q-10 10 -10 24zM455 532l2 -81q6 -109 47 -161t125 -52t125 52t47 161q2 20 2 81t-2 82q-6 106 -47 159.5t-125 53.5t-125 -53t-47 -160z" />
<glyph unicode="&#xf3;" horiz-adv-x="1257" d="M80 532q0 66 2 93q12 217 154.5 338.5t392.5 121.5t392 -121.5t155 -338.5q4 -53 4 -93q0 -39 -4 -92q-12 -221 -150.5 -340.5t-396.5 -119.5t-396.5 119.5t-150.5 340.5q-2 27 -2 92zM455 532l2 -81q6 -109 47 -161t125 -52t125 52t47 161q2 20 2 81t-2 82 q-6 106 -47 159.5t-125 53.5t-125 -53t-47 -160zM471 1251q0 16 10 27l182 223q20 25 35.5 32t40.5 7h283q18 0 28.5 -11t10.5 -30q0 -14 -11 -24l-274 -226q-20 -16 -36.5 -23t-43.5 -7h-192q-33 -1 -33 32z" />
<glyph unicode="&#xf4;" horiz-adv-x="1257" d="M80 532q0 66 2 93q12 217 154.5 338.5t392.5 121.5t392 -121.5t155 -338.5q4 -53 4 -93q0 -39 -4 -92q-12 -221 -150.5 -340.5t-396.5 -119.5t-396.5 119.5t-150.5 340.5q-2 27 -2 92zM244 1247q0 18 14 33l213 223q20 20 35.5 28.5t36.5 8.5h170q23 0 38 -7t35 -30 l211 -223q16 -16 17 -33q0 -29 -33 -28h-100q-45 0 -72 14l-180 98l-180 -98q-27 -14 -72 -14h-103q-30 -1 -30 28zM455 532l2 -81q6 -109 47 -161t125 -52t125 52t47 161q2 20 2 81t-2 82q-6 106 -47 159.5t-125 53.5t-125 -53t-47 -160z" />
<glyph unicode="&#xf5;" horiz-adv-x="1257" d="M80 532q0 66 2 93q12 217 154.5 338.5t392.5 121.5t392 -121.5t155 -338.5q4 -53 4 -93q0 -39 -4 -92q-12 -221 -150.5 -340.5t-396.5 -119.5t-396.5 119.5t-150.5 340.5q-2 27 -2 92zM271 1253q0 53 23.5 115t75.5 106t134 44q41 0 70 -10.5t67 -30.5q29 -16 46.5 -23.5 t39.5 -7.5q20 0 31.5 8t24.5 27q10 14 18 21t23 7h129q16 0 26.5 -11t10.5 -25q0 -53 -25 -115t-77 -106t-134 -44q-41 0 -67.5 10.5t-69.5 30.5q-49 31 -86 31q-20 0 -31.5 -8t-23.5 -25q-10 -14 -18.5 -21t-22.5 -7h-127q-14 0 -25.5 10t-11.5 24zM455 532l2 -81 q6 -109 47 -161t125 -52t125 52t47 161q2 20 2 81t-2 82q-6 106 -47 159.5t-125 53.5t-125 -53t-47 -160z" />
<glyph unicode="&#xf6;" horiz-adv-x="1257" d="M80 532q0 66 2 93q12 217 154.5 338.5t392.5 121.5t392 -121.5t155 -338.5q4 -53 4 -93q0 -39 -4 -92q-12 -221 -150.5 -340.5t-396.5 -119.5t-396.5 119.5t-150.5 340.5q-2 27 -2 92zM271 1286v197q0 20 12 33.5t33 13.5h196q20 0 34 -13.5t14 -33.5v-197 q0 -20 -13.5 -32.5t-34.5 -12.5h-196q-21 0 -33 12.5t-12 32.5zM455 532l2 -81q6 -109 47 -161t125 -52t125 52t47 161q2 20 2 81t-2 82q-6 106 -47 159.5t-125 53.5t-125 -53t-47 -160zM701 1286v197q0 20 13 33.5t34 13.5h194q20 0 34 -13.5t14 -33.5v-197 q0 -20 -13.5 -32.5t-34.5 -12.5h-194q-21 0 -34 12.5t-13 32.5z" />
<glyph unicode="&#xf7;" horiz-adv-x="1091" d="M90 530v168q0 23 14.5 38.5t36.5 15.5h809q23 0 37 -15.5t14 -38.5v-168q0 -20 -14 -35.5t-37 -15.5h-809q-20 0 -35.5 15.5t-15.5 35.5zM391 139v189q0 23 15.5 38t37.5 15h201q23 0 38 -15.5t15 -37.5v-189q0 -23 -15 -37t-38 -14h-201q-22 0 -37.5 14.5t-15.5 36.5z M391 903v189q0 23 15.5 37t37.5 14h201q23 0 38 -14.5t15 -36.5v-189q0 -23 -15 -38t-38 -15h-201q-22 0 -37.5 15.5t-15.5 37.5z" />
<glyph unicode="&#xf8;" horiz-adv-x="1316" d="M20 246v106q0 27 10.5 39t35.5 23l47 16q-2 33 -2 98q0 66 2 97q12 213 152.5 336.5t393.5 123.5q186 0 309.5 -65.5t182.5 -185.5l78 30q16 6 22 6q18 0 30.5 -11t12.5 -30v-106q0 -27 -10 -39t-35 -22l-43 -17q4 -70 4 -123l-2 -82q-12 -217 -148 -338.5t-401 -121.5 q-192 0 -316 67.5t-183 192.5l-74 -29q-16 -6 -23 -6q-18 0 -30.5 11t-12.5 30zM487 606l2 -31l330 130q-29 123 -160 122q-158 0 -170 -190zM498 371q27 -133 161 -133q84 0 126 49t46 159v54z" />
<glyph unicode="&#xf9;" horiz-adv-x="1318" d="M106 442v572q0 23 15.5 37t36.5 14h272q23 0 38 -14.5t15 -36.5v-559q0 -190 170 -191q82 0 128 50.5t46 140.5v559q0 23 15.5 37t38.5 14h270q23 0 37 -14.5t14 -36.5v-963q0 -20 -14 -35.5t-37 -15.5h-250q-23 0 -38 14.5t-15 36.5v78q-106 -150 -340 -149 q-180 0 -291 120.5t-111 341.5zM219 1499q0 18 10 29.5t29 11.5h280q27 0 41.5 -7t34.5 -32l184 -223q10 -10 11 -27q0 -33 -33 -32h-195q-24 0 -40.5 7t-36.5 23l-275 226q-10 10 -10 24z" />
<glyph unicode="&#xfa;" horiz-adv-x="1318" d="M106 442v572q0 23 15.5 37t36.5 14h272q23 0 38 -14.5t15 -36.5v-559q0 -190 170 -191q82 0 128 50.5t46 140.5v559q0 23 15.5 37t38.5 14h270q23 0 37 -14.5t14 -36.5v-963q0 -20 -14 -35.5t-37 -15.5h-250q-23 0 -38 14.5t-15 36.5v78q-106 -150 -340 -149 q-180 0 -291 120.5t-111 341.5zM500 1251q0 16 10 27l182 223q20 25 35.5 32t40.5 7h283q18 0 28.5 -11t10.5 -30q0 -14 -11 -24l-274 -226q-20 -16 -36.5 -23t-43.5 -7h-192q-33 -1 -33 32z" />
<glyph unicode="&#xfb;" horiz-adv-x="1318" d="M106 442v572q0 23 15.5 37t36.5 14h272q23 0 38 -14.5t15 -36.5v-559q0 -190 170 -191q82 0 128 50.5t46 140.5v559q0 23 15.5 37t38.5 14h270q23 0 37 -14.5t14 -36.5v-963q0 -20 -14 -35.5t-37 -15.5h-250q-23 0 -38 14.5t-15 36.5v78q-106 -150 -340 -149 q-180 0 -291 120.5t-111 341.5zM271 1247q0 18 14 33l213 223q20 20 35.5 28.5t36.5 8.5h170q23 0 38 -7t35 -30l211 -223q16 -16 17 -33q0 -29 -33 -28h-100q-45 0 -72 14l-180 98l-180 -98q-27 -14 -72 -14h-103q-30 -1 -30 28z" />
<glyph unicode="&#xfc;" horiz-adv-x="1318" d="M106 442v572q0 23 15.5 37t36.5 14h272q23 0 38 -14.5t15 -36.5v-559q0 -190 170 -191q82 0 128 50.5t46 140.5v559q0 23 15.5 37t38.5 14h270q23 0 37 -14.5t14 -36.5v-963q0 -20 -14 -35.5t-37 -15.5h-250q-23 0 -38 14.5t-15 36.5v78q-106 -150 -340 -149 q-180 0 -291 120.5t-111 341.5zM295 1286v197q0 20 12 33.5t33 13.5h196q20 0 34 -13.5t14 -33.5v-197q0 -20 -13.5 -32.5t-34.5 -12.5h-196q-21 0 -33 12.5t-12 32.5zM725 1286v197q0 20 13 33.5t34 13.5h194q20 0 34 -13.5t14 -33.5v-197q0 -20 -13.5 -32.5t-34.5 -12.5 h-194q-21 0 -34 12.5t-13 32.5z" />
<glyph unicode="&#xfd;" horiz-adv-x="1230" d="M41 1018q4 20 17.5 33.5t31.5 13.5h244q43 0 59 -43l228 -582l233 582q20 43 61 43h242q18 0 31.5 -13.5t13.5 -29.5q0 -14 -4 -27l-580 -1341q-20 -43 -63 -43h-238q-18 0 -30.5 12t-12.5 31q0 14 5 27l161 385l-393 929q-6 16 -6 23zM471 1251q0 16 10 27l182 223 q20 25 35.5 32t40.5 7h283q18 0 28.5 -11t10.5 -30q0 -14 -11 -24l-274 -226q-20 -16 -36.5 -23t-43.5 -7h-192q-33 -1 -33 32z" />
<glyph unicode="&#xfe;" horiz-adv-x="1300" d="M119 -338v1741q0 23 15.5 37t35.5 14h264q23 0 38 -14.5t15 -36.5v-449q49 66 118 98.5t177 32.5q201 0 314.5 -123.5t122.5 -353.5q2 -27 2 -76t-2 -77q-8 -221 -123 -348t-314 -127q-197 0 -295 135v-453q0 -23 -15 -37t-38 -14h-264q-20 0 -35.5 14.5t-15.5 36.5z M485 524q0 -49 2 -75q4 -80 48.5 -132.5t130.5 -52.5q92 0 131 54.5t45 150.5q4 41 4 63q0 23 -4 64q-6 96 -45 150.5t-131 54.5q-90 0 -132 -55.5t-47 -143.5q-2 -27 -2 -78z" />
<glyph unicode="&#xff;" horiz-adv-x="1230" d="M41 1018q4 20 17.5 33.5t31.5 13.5h244q43 0 59 -43l228 -582l233 582q20 43 61 43h242q18 0 31.5 -13.5t13.5 -29.5q0 -14 -4 -27l-580 -1341q-20 -43 -63 -43h-238q-18 0 -30.5 12t-12.5 31q0 14 5 27l161 385l-393 929q-6 16 -6 23zM264 1286v197q0 20 12 33.5 t33 13.5h196q20 0 34 -13.5t14 -33.5v-197q0 -20 -13.5 -32.5t-34.5 -12.5h-196q-21 0 -33 12.5t-12 32.5zM694 1286v197q0 20 13 33.5t34 13.5h194q20 0 34 -13.5t14 -33.5v-197q0 -20 -13.5 -32.5t-34.5 -12.5h-194q-21 0 -34 12.5t-13 32.5z" />
<glyph unicode="&#x152;" horiz-adv-x="1982" d="M94 717q0 98 2 157q8 270 176 415t469 145h1084q23 0 38 -15.5t15 -38.5v-202q0 -23 -15.5 -37.5t-37.5 -14.5h-594v-260h549q23 0 38 -15t15 -38v-186q0 -23 -15.5 -38.5t-37.5 -15.5h-549v-266h610q23 0 38 -15.5t15 -37.5v-203q0 -23 -15 -37t-38 -14h-1110 q-617 0 -635 561q-2 57 -2 156zM483 719q0 -94 2 -154q4 -135 66.5 -196.5t189.5 -61.5h121v819h-110q-129 0 -196 -62.5t-71 -193.5q-2 -57 -2 -151z" />
<glyph unicode="&#x153;" horiz-adv-x="1949" d="M80 532q0 66 2 93q12 217 154.5 338.5t392.5 121.5q231 0 368 -124q135 125 346 124q176 0 298 -70.5t182.5 -194.5t60.5 -281v-52q0 -23 -15.5 -38t-37.5 -15h-649v-12q2 -92 43 -148.5t116 -56.5q47 0 76 19.5t56 50.5q18 20 30.5 25t34.5 5h270q18 0 31.5 -12 t11.5 -31q-2 -53 -62 -123.5t-175 -120.5t-268 -50q-109 0 -198 30.5t-153 87.5q-135 -119 -366 -118q-258 0 -396.5 119.5t-150.5 340.5q-2 27 -2 92zM457 532l2 -81q4 -109 45 -161t125 -52q86 0 127 52t45 161q2 20 2 81t-2 82q-4 106 -45 159.5t-127 53.5 q-84 0 -125 -53t-45 -160zM1182 643h325v4q0 98 -43 152.5t-121 54.5t-119.5 -54.5t-41.5 -152.5v-4z" />
<glyph unicode="&#x178;" horiz-adv-x="1400" d="M29 1391q0 16 13 29.5t30 13.5h270q29 0 47.5 -14.5t26.5 -30.5l284 -515l285 515q8 16 26.5 30.5t47.5 14.5h270q16 0 29.5 -13.5t13.5 -29.5q0 -12 -6 -23l-473 -881v-436q0 -23 -15.5 -37t-37.5 -14h-281q-20 0 -35.5 15.5t-15.5 35.5v436l-473 881q-6 10 -6 23z M309 1583v195q0 20 12.5 33.5t32.5 13.5h197q20 0 33.5 -13.5t13.5 -33.5v-195q0 -20 -13.5 -33.5t-33.5 -13.5h-197q-20 0 -32.5 13.5t-12.5 33.5zM800 1583v195q0 20 13.5 33.5t34.5 13.5h194q20 0 33.5 -13.5t13.5 -33.5v-195q0 -20 -13 -33.5t-34 -13.5h-194 q-21 0 -34.5 13.5t-13.5 33.5z" />
<glyph unicode="&#x2c6;" horiz-adv-x="1001" d="M117 1247q0 18 14 33l213 223q20 20 35.5 28.5t36.5 8.5h170q23 0 38 -7t35 -30l211 -223q16 -16 17 -33q0 -29 -33 -28h-100q-45 0 -72 14l-180 98l-180 -98q-27 -14 -72 -14h-103q-30 -1 -30 28z" />
<glyph unicode="&#x2dc;" horiz-adv-x="950" d="M117 1253q0 53 23.5 115t75.5 106t134 44q41 0 70 -10.5t67 -30.5q29 -16 46.5 -23.5t39.5 -7.5q20 0 31.5 8t24.5 27q10 14 18 21t23 7h129q16 0 26.5 -11t10.5 -25q0 -53 -25 -115t-77 -106t-134 -44q-41 0 -67.5 10.5t-69.5 30.5q-49 31 -86 31q-20 0 -31.5 -8 t-23.5 -25q-10 -14 -18.5 -21t-22.5 -7h-127q-14 0 -25.5 10t-11.5 24z" />
<glyph unicode="&#x2000;" horiz-adv-x="939" />
<glyph unicode="&#x2001;" horiz-adv-x="1878" />
<glyph unicode="&#x2002;" horiz-adv-x="939" />
<glyph unicode="&#x2003;" horiz-adv-x="1878" />
<glyph unicode="&#x2004;" horiz-adv-x="626" />
<glyph unicode="&#x2005;" horiz-adv-x="469" />
<glyph unicode="&#x2006;" horiz-adv-x="313" />
<glyph unicode="&#x2007;" horiz-adv-x="313" />
<glyph unicode="&#x2008;" horiz-adv-x="234" />
<glyph unicode="&#x2009;" horiz-adv-x="375" />
<glyph unicode="&#x200a;" horiz-adv-x="104" />
<glyph unicode="&#x2010;" horiz-adv-x="974" d="M113 512v205q0 23 15 37t38 14h645q23 0 37 -14.5t14 -36.5v-205q0 -20 -14 -35.5t-37 -15.5h-645q-23 0 -38 14t-15 37z" />
<glyph unicode="&#x2011;" horiz-adv-x="974" d="M113 512v205q0 23 15 37t38 14h645q23 0 37 -14.5t14 -36.5v-205q0 -20 -14 -35.5t-37 -15.5h-645q-23 0 -38 14t-15 37z" />
<glyph unicode="&#x2012;" horiz-adv-x="974" d="M113 512v205q0 23 15 37t38 14h645q23 0 37 -14.5t14 -36.5v-205q0 -20 -14 -35.5t-37 -15.5h-645q-23 0 -38 14t-15 37z" />
<glyph unicode="&#x2013;" horiz-adv-x="1159" d="M113 512v205q0 23 15 37t38 14h829q23 0 37.5 -14.5t14.5 -36.5v-205q0 -20 -14.5 -35.5t-37.5 -15.5h-829q-23 0 -38 14t-15 37z" />
<glyph unicode="&#x2014;" horiz-adv-x="1548" d="M113 512v205q0 23 15 37t38 14h1218q23 0 37.5 -14.5t14.5 -36.5v-205q0 -20 -14.5 -35.5t-37.5 -15.5h-1218q-23 0 -38 14t-15 37z" />
<glyph unicode="&#x2018;" horiz-adv-x="559" d="M61 967q0 12 5 22l157 408q12 27 29.5 42t48.5 15h150q18 0 29.5 -12t8.5 -35l-63 -410q-6 -31 -24.5 -51t-51.5 -20h-250q-16 0 -27.5 12t-11.5 29z" />
<glyph unicode="&#x2019;" horiz-adv-x="548" d="M82 973l63 409q6 31 24.5 51.5t51.5 20.5h250q16 0 27.5 -12t11.5 -29q0 -12 -4 -22l-158 -408q-12 -27 -29.5 -42t-48.5 -15h-149q-19 0 -30 12t-9 35z" />
<glyph unicode="&#x201a;" horiz-adv-x="573" d="M63 -106l64 409q6 31 24.5 51.5t51.5 20.5h250q16 0 27.5 -12.5t11.5 -28.5q0 -12 -5 -23l-157 -407q-12 -27 -29.5 -42.5t-48.5 -15.5h-150q-18 0 -29.5 12.5t-9.5 35.5z" />
<glyph unicode="&#x201c;" horiz-adv-x="1021" d="M61 967q0 12 5 22l157 408q12 27 29.5 42t48.5 15h150q18 0 29.5 -14.5t8.5 -32.5l-63 -410q-6 -31 -24.5 -51t-51.5 -20h-250q-16 0 -27.5 12t-11.5 29zM524 967q0 12 4 22l158 408q12 27 29.5 42t48.5 15h149q18 0 29.5 -14.5t9.5 -32.5l-63 -410q-6 -31 -24.5 -51 t-51.5 -20h-250q-16 0 -27.5 12t-11.5 29z" />
<glyph unicode="&#x201d;" horiz-adv-x="1011" d="M82 973l63 409q6 31 24.5 51.5t51.5 20.5h250q16 0 27.5 -12t11.5 -29q0 -12 -4 -22l-158 -408q-12 -27 -29.5 -42t-48.5 -15h-149q-19 0 -30 14t-9 33zM545 973l63 409q6 31 24.5 51.5t51.5 20.5h250q16 0 27.5 -12t11.5 -29q0 -12 -4 -22l-158 -408q-12 -27 -29.5 -42 t-48.5 -15h-149q-19 0 -30 14t-9 33z" />
<glyph unicode="&#x201e;" horiz-adv-x="1036" d="M63 -106l64 409q6 31 24.5 51.5t51.5 20.5h250q16 0 27.5 -12.5t11.5 -28.5q0 -12 -5 -23l-157 -407q-12 -27 -29.5 -42.5t-48.5 -15.5h-150q-18 0 -29.5 14.5t-9.5 33.5zM526 -109l64 412q6 31 24.5 51.5t51.5 20.5h249q16 0 27.5 -12.5t11.5 -28.5q0 -12 -4 -23 l-157 -407q-12 -27 -30 -42.5t-48 -15.5h-150q-16 0 -28.5 13.5t-10.5 31.5z" />
<glyph unicode="&#x2022;" horiz-adv-x="788" d="M135 682q0 70 35 130t95.5 95t129.5 35q70 0 129.5 -35t94 -95t34.5 -130t-34.5 -129t-94 -94t-129.5 -35q-69 0 -129.5 35t-95.5 94t-35 129z" />
<glyph unicode="&#x2026;" horiz-adv-x="1540" d="M106 51v244q0 23 15.5 38t36.5 15h243q20 0 36 -15.5t16 -37.5v-244q0 -20 -14.5 -35.5t-37.5 -15.5h-243q-21 0 -36.5 15.5t-15.5 35.5zM596 51v244q0 23 15.5 38t37.5 15h242q23 0 38 -15.5t15 -37.5v-244q0 -23 -15.5 -37t-37.5 -14h-242q-22 0 -37.5 14.5t-15.5 36.5 zM1087 51v244q0 23 15.5 38t36.5 15h243q23 0 38.5 -15.5t15.5 -37.5v-244q0 -20 -15.5 -35.5t-38.5 -15.5h-243q-21 0 -36.5 15.5t-15.5 35.5z" />
<glyph unicode="&#x202f;" horiz-adv-x="375" />
<glyph unicode="&#x2039;" horiz-adv-x="708" d="M61 623v102q0 35 31 61l424 412q18 16 35 16q18 0 31.5 -13t13.5 -32v-202q0 -31 -8 -48.5t-29 -37.5l-211 -207l211 -207q20 -20 28.5 -37.5t8.5 -48.5v-203q0 -18 -13.5 -31.5t-31.5 -13.5q-17 1 -35 17l-424 411q-31 29 -31 62z" />
<glyph unicode="&#x203a;" horiz-adv-x="708" d="M113 178v203q0 31 8 48t29 38l210 207l-210 207q-20 20 -28.5 37.5t-8.5 48.5v202q0 18 13 31.5t32 13.5q16 0 35 -16l423 -412q31 -27 31 -61v-102q0 -33 -31 -62l-423 -411q-18 -16 -35 -17q-19 0 -32 13.5t-13 31.5z" />
<glyph unicode="&#x205f;" horiz-adv-x="469" />
<glyph unicode="&#x20ac;" horiz-adv-x="1615" d="M66 633v170q0 23 15 37t38 14h125v12q-2 289 166 438.5t471 149.5q186 0 331.5 -59.5t228.5 -166t85 -243.5q0 -18 -13.5 -31.5t-31.5 -13.5h-293q-29 0 -44.5 12.5t-25.5 42.5q-27 80 -86 116t-151 36q-121 0 -181.5 -68.5t-56.5 -224.5h279q23 0 37 -14.5t14 -36.5 v-170q0 -20 -14.5 -35.5t-36.5 -15.5h-279q-4 -156 56.5 -225.5t181.5 -69.5q92 0 151.5 35.5t85.5 115.5q10 31 25.5 43.5t44.5 12.5h293q18 0 31.5 -13.5t13.5 -31.5q-2 -137 -85 -244t-228.5 -166t-331.5 -59q-303 0 -473 149.5t-164 439.5v13h-125q-23 0 -38 14t-15 37z " />
<glyph unicode="&#x2122;" horiz-adv-x="1327" d="M80 1309v80q0 20 12 32.5t33 12.5h387q20 0 32.5 -12.5t12.5 -32.5v-80q0 -20 -12.5 -32.5t-32.5 -12.5h-106v-330q0 -20 -12.5 -32.5t-33.5 -12.5h-84q-20 0 -32.5 12t-12.5 33v330h-106q-20 0 -32.5 12t-12.5 33zM616 934v455q0 20 12.5 32.5t33.5 12.5h79 q20 0 32.5 -11.5t29.5 -33.5l106 -172l107 172q12 20 25.5 32.5t33.5 12.5h80q20 0 32.5 -12.5t12.5 -32.5v-455q0 -20 -12 -32.5t-33 -12.5h-84q-20 0 -32.5 12t-12.5 33v196l-43 -69q-14 -23 -24.5 -32t-28.5 -9h-43q-18 0 -28.5 9t-24.5 32l-43 69v-196 q0 -20 -12.5 -32.5t-33.5 -12.5h-83q-21 0 -33.5 12t-12.5 33z" />
<glyph unicode="&#x25fc;" horiz-adv-x="1064" d="M0 0v1065h1065v-1065h-1065z" />
<glyph unicode="&#xfb03;" horiz-adv-x="2164" d="M33 838v176q0 23 15 37t38 14h154v61q0 205 118.5 297.5t339.5 92.5h162q23 0 38 -14.5t15 -37.5v-176q0 -23 -15 -37t-38 -14h-145q-66 0 -93.5 -29.5t-27.5 -91.5v-51h401v61q0 205 118 297.5t341 92.5h543q23 0 37 -14.5t14 -37.5v-176q0 -20 -14.5 -35.5t-36.5 -15.5 h-527q-66 0 -93 -29.5t-27 -91.5v-51h647q23 0 37 -14.5t14 -36.5v-963q0 -20 -14.5 -35.5t-36.5 -15.5h-252q-20 0 -35.5 15.5t-15.5 35.5v735h-344v-735q0 -20 -14.5 -35.5t-37.5 -15.5h-251q-20 0 -36 15.5t-16 35.5v735h-401v-735q0 -20 -14.5 -35.5t-36.5 -15.5h-250 q-23 0 -38 14.5t-15 36.5v735h-154q-23 0 -38 14.5t-15 37.5z" />
<glyph unicode="&#xfb04;" horiz-adv-x="2222" d="M33 838v176q0 23 15 37t38 14h154v61q0 205 118.5 297.5t339.5 92.5h162q23 0 38 -14.5t15 -37.5v-176q0 -23 -15 -37t-38 -14h-145q-66 0 -93.5 -29.5t-27.5 -91.5v-51h401v61q0 205 118 297.5t341 92.5h135q23 0 37 -14.5t14 -37.5v-176q0 -20 -14 -35.5t-37 -15.5 h-119q-66 0 -93 -29.5t-27 -91.5v-51h401v399q0 23 15.5 37.5t35.5 14.5h250q23 0 38 -14.5t15 -37.5v-1413q0 -23 -15 -37t-38 -14h-250q-20 0 -35.5 15.5t-15.5 35.5v735h-401v-735q0 -20 -14.5 -35.5t-37.5 -15.5h-251q-20 0 -36 15.5t-16 35.5v735h-401v-735 q0 -20 -14.5 -35.5t-36.5 -15.5h-250q-23 0 -38 14.5t-15 36.5v735h-154q-23 0 -38 14.5t-15 37.5z" />
</font>
</defs>
</svg>
